<?xml version="1.0" standalone="no"?>
<!DOCTYPE svg PUBLIC "-//W3C//DTD SVG 1.1//EN" "http://www.w3.org/Graphics/SVG/1.1/DTD/svg11.dtd" >
<svg xmlns="http://www.w3.org/2000/svg">
<defs>
  <font id="Nucleo" horiz-adv-x="256">
    <font-face font-family="Nucleo"
      units-per-em="256" ascent="256"
      descent="0" />
    <missing-glyph horiz-adv-x="0" />
    <glyph glyph-name="house"
      unicode="&#xEA02;"
      horiz-adv-x="256" d="M76.773 191.179L21.046 146.5L21.023 73.25L21 0L64 0L107 0L107 37.5L107 75L133.5 75L160 75L160 37.5L160 0L202.5 0L245 0L245 73.402L245 146.805L189.25 191.402C158.587 215.93 133.275 235.967 133 235.928C132.725 235.889 107.423 215.752 76.773 191.179M222.25 151.246L235 140.874L235 75.937L235 11L203 11L171 11L171 48L171 85L133.5 85L96 85L96 48L96 11L64 11L32 11L32.045 76.25L32.091 141.5L82.795 182.087L133.5 222.673L171.5 192.146C192.4 175.356 215.238 156.951 222.25 151.246" />
    <glyph glyph-name="house-1"
      unicode="&#xEA03;"
      horiz-adv-x="256" d="M241.3333333333333 168.3306666666667L134.6666666666667 253.664A10.6666666666667 10.6666666666667 0 0 1 121.3333333333333 253.664L14.6666666666667 168.3306666666667A10.6666666666667 10.6666666666667 0 0 1 10.6666666666667 160V21.3333333333333A10.6666666666667 10.6666666666667 0 0 1 21.3333333333333 10.6666666666667H96V96H160V10.6666666666667H234.6666666666667A10.6666666666667 10.6666666666667 0 0 1 245.3333333333333 21.3333333333333V160A10.6666666666667 10.6666666666667 0 0 1 241.3333333333333 168.3306666666667z" />
    <glyph glyph-name="news"
      unicode="&#xEA04;"
      horiz-adv-x="256" d="M234.6666666666667 256H64A10.6666666666667 10.6666666666667 0 0 1 53.3333333333333 245.3333333333334V37.3333333333333A16 16 0 0 0 21.3333333333333 37.3333333333333V106.6666666666667H42.6666666666667V128H10.6666666666667A10.6666666666667 10.6666666666667 0 0 1 0 117.3333333333334V37.3333333333333A37.3333333333333 37.3333333333333 0 0 1 37.3333333333333 0H213.3333333333333A32.16 32.16 0 0 1 245.3333333333333 32V245.3333333333334A10.6666666666667 10.6666666666667 0 0 1 234.6666666666667 256zM197.3333333333333 53.3333333333333H101.3333333333333A5.3333333333333 5.3333333333333 0 0 0 96 58.6666666666667V69.3333333333333A5.3333333333333 5.3333333333333 0 0 0 101.3333333333333 74.6666666666667H197.3333333333333A5.3333333333333 5.3333333333333 0 0 0 202.6666666666667 69.3333333333333V58.6666666666667A5.3333333333333 5.3333333333333 0 0 0 197.3333333333333 53.3333333333333zM197.3333333333333 106.6666666666667H101.3333333333333A5.3333333333333 5.3333333333333 0 0 0 96 112V122.6666666666667A5.3333333333333 5.3333333333333 0 0 0 101.3333333333333 128H197.3333333333333A5.3333333333333 5.3333333333333 0 0 0 202.6666666666667 122.6666666666667V112A5.3333333333333 5.3333333333333 0 0 0 197.3333333333333 106.6666666666667zM197.3333333333333 160H101.3333333333333A5.3333333333333 5.3333333333333 0 0 0 96 165.3333333333334V208A5.3333333333333 5.3333333333333 0 0 0 101.3333333333333 213.3333333333334H197.3333333333333A5.3333333333333 5.3333333333333 0 0 0 202.6666666666667 208V165.3333333333334A5.3333333333333 5.3333333333333 0 0 0 197.3333333333333 160z" />
    <glyph glyph-name="news-1"
      unicode="&#xEA05;"
      horiz-adv-x="256" d="M53 133.901C53 10.978 53.402 18.563 46.627 13.73C44.277 12.055 42.124 11.508 37.967 11.531C30.73 11.572 26.193 14.178 23.25 19.985C21.025 24.375 21 24.877 21 65.712L21 107L26.5 107L32 107L32 112L32 117L21.5 117L11 117L11 68.696L11 20.393L13.595 15.186C16.175 10.008 21.719 4.728 27.5 1.945C32.089 -0.265 228.925 -0.746 236.414 1.434C243.941 3.626 249.423 8.125 252.701 14.801L255.5 20.5L255.767 132.75L256.034 245L154.517 245L53 245L53 133.901M245 128.901C245 11.521 245.389 18.554 238.627 13.73L235.5 11.5L147.299 11.234L59.098 10.968L61.299 15.734L63.5 20.5L63.768 127.75L64.035 235L154.518 235L245 235L245 128.901M96 165.5L96 139L154.5 139L213 139L213 165.5L213 192L154.5 192L96 192L96 165.5M203 165L203 149L155 149L107 149L107 165L107 181L155 181L203 181L203 165M96 101.5L96 96L154.5 96L213 96L213 101.5L213 107L154.5 107L96 107L96 101.5M96 58.5L96 53L154.5 53L213 53L213 58.5L213 64L154.5 64L96 64L96 58.5" />
    <glyph glyph-name="chart-bar-32"
      unicode="&#xEA06;"
      horiz-adv-x="256" d="M107 122.5L107 21L133.5 21L160 21L160 122.5L160 224L133.5 224L107 224L107 122.5M149 122.5L149 32L133 32L117 32L117 122.5L117 213L133 213L149 213L149 122.5M203 90.5L203 21L229.5 21L256 21L256 90.5L256 160L229.5 160L203 160L203 90.5M245 90.5L245 32L229 32L213 32L213 90.5L213 149L229 149L245 149L245 90.5M11 64L11 21L37.5 21L64 21L64 64L64 107L37.5 107L11 107L11 64M53 64L53 32L37 32L21 32L21 64L21 96L37 96L53 96L53 64" />
    <glyph glyph-name="chart-bar-32-1"
      unicode="&#xEA07;"
      horiz-adv-x="256" d="M149.3333333333333 234.6666666666667H106.6666666666667C100.7786666666667 234.6666666666667 96 229.888 96 224V32C96 26.112 100.7786666666667 21.3333333333333 106.6666666666667 21.3333333333333H149.3333333333334C155.2213333333334 21.3333333333333 160 26.112 160 32V224C160 229.888 155.2213333333333 234.6666666666667 149.3333333333333 234.6666666666667zM53.3333333333333 117.3333333333334H10.6666666666667C4.7786666666667 117.3333333333334 0 112.5546666666667 0 106.6666666666667V32C0 26.112 4.7786666666667 21.3333333333334 10.6666666666667 21.3333333333334H53.3333333333333C59.2213333333333 21.3333333333334 64 26.112 64 32V106.6666666666667C64 112.5546666666667 59.2213333333333 117.3333333333334 53.3333333333333 117.3333333333334zM245.3333333333333 170.6666666666667H202.6666666666667C196.7786666666667 170.6666666666667 192 165.888 192 160V32C192 26.112 196.7786666666667 21.3333333333333 202.6666666666667 21.3333333333333H245.3333333333333C251.2213333333333 21.3333333333333 256 26.112 256 32V160C256 165.888 251.2213333333333 170.6666666666667 245.3333333333333 170.6666666666667z" />
    <glyph glyph-name="shape-star"
      unicode="&#xEA08;"
      horiz-adv-x="256" d="M246.8693333333333 164.896L171.3386666666667 175.872L137.6 244.2666666666667A11.104 11.104 0 0 1 118.464 244.2666666666667L84.6613333333333 175.872L9.1306666666667 164.896A10.6666666666667 10.6666666666667 0 0 1 3.2 146.7093333333334L57.8666666666667 93.44L44.9706666666667 18.208A10.6666666666667 10.6666666666667 0 0 1 60.448 6.9653333333333L128 42.4746666666667L195.552 6.9653333333333A10.6666666666667 10.6666666666667 0 0 1 211.0293333333334 18.208L198.1333333333333 93.44L252.8 146.7093333333334A10.6666666666667 10.6666666666667 0 0 1 246.8906666666667 164.896z" />
    <glyph glyph-name="shape-star-1"
      unicode="&#xEA09;"
      horiz-adv-x="256" d="M115.067 199.389C105.114 179.176 96.849 162.516 96.701 162.368C96.553 162.22 78.897 159.568 57.466 156.475C36.035 153.382 17.829 150.632 17.01 150.365C16.017 150.041 25.311 140.309 44.874 121.189L74.229 92.5L67.277 52.5C63.453 30.5 60.44 12.349 60.581 12.164C60.722 11.98 76.913 20.267 96.561 30.581C116.209 40.895 132.783 49.322 133.392 49.309C134.002 49.296 150.434 40.893 169.909 30.635C189.384 20.377 205.478 12.144 205.673 12.339C205.868 12.534 203.072 30.143 199.46 51.47C195.848 72.796 193.03 90.99 193.197 91.899C193.363 92.808 206.228 106.012 221.785 121.24C237.341 136.469 250.034 149.282 249.99 149.715C249.946 150.147 233.842 152.835 214.205 155.688C194.567 158.541 176.548 161.162 174.163 161.512L169.826 162.149L151.495 199.145L133.164 236.141L115.067 199.389M192.571 148.139C209.032 145.745 223.825 143.536 225.445 143.23C228.297 142.69 227.644 141.947 204.659 119.586L180.929 96.5L186.488 64.106C189.545 46.29 191.923 31.624 191.773 31.516C191.623 31.407 178.381 38.229 162.348 46.676L133.195 62.034L104.545 46.902C88.788 38.58 75.671 31.996 75.396 32.271C75.122 32.545 77.35 47.109 80.348 64.635L85.8 96.5L62.276 119.462C41.016 140.213 38.98 142.484 41.126 143.058C42.432 143.407 57.07 145.653 73.655 148.05L103.811 152.409L118.548 182.198L133.286 211.988L147.964 182.239L162.643 152.49L192.571 148.139" />
    <glyph glyph-name="warning-sign"
      unicode="&#xEA0A;"
      horiz-adv-x="256" d="M115.5 251.097C112.75 249.511 109.515 247.153 108.312 245.856C105.75 243.098 5.392 57.352 3.369 51.624C-0.239 41.41 3.066 29.358 11.332 22.584C19.745 15.691 14.26 16 128.044 16C242.498 16 236.742 15.664 245.132 22.845C252.965 29.55 256.133 41.709 252.631 51.624C250.335 58.124 150.069 243.306 147.248 246.257C139.492 254.371 125.004 256.579 115.5 251.097M133.257 236.929C134.55 236.34 136.164 234.967 136.843 233.879C137.523 232.791 160.389 190.41 187.656 139.7C223.923 72.253 237.37 46.366 237.744 43.277C238.205 39.46 237.914 38.714 234.713 35.513L231.172 31.972L127.652 32.236L24.131 32.5L21.065 35.437C15.095 41.157 13.19 36.951 68.055 139.208C98.894 196.684 119.247 233.556 121.071 235.25C124.269 238.22 128.994 238.871 133.257 236.929M122.455 189.545L120 187.091L120 144L120 100.909L122.455 98.455C124.002 96.907 126.052 96 128 96C129.948 96 131.998 96.907 133.545 98.455L136 100.909L136 144L136 187.091L133.545 189.545C131.998 191.093 129.948 192 128 192C126.052 192 124.002 191.093 122.455 189.545M121.45 78.593C111.361 74.199 108.978 60.787 116.882 52.882C123.369 46.396 132.631 46.396 139.118 52.882C151.529 65.294 137.566 85.613 121.45 78.593" />
    <glyph glyph-name="c-info"
      unicode="&#xEA0B;"
      horiz-adv-x="256" d="M125 239.363C95.259 236.593 66.065 221.717 46.537 199.38C34.683 185.821 28.878 176.013 23.231 160C18.25 145.878 16.654 136.167 16.654 120C16.654 98.624 20.807 81.664 30.575 63.158C41.214 43 61.145 23.464 81.5 13.242C98.708 4.6 115.793 0.654 136 0.654C156.207 0.654 173.292 4.6 190.5 13.242C210.855 23.464 230.786 43 241.425 63.158C251.193 81.664 255.346 98.624 255.346 120C255.346 136.167 253.75 145.878 248.769 160C243.122 176.013 237.317 185.821 225.463 199.38C208.77 218.473 186.558 231.45 161 237.039C152.448 238.91 133.362 240.141 125 239.363M157.5 221.623C198.188 212.769 229.268 181.122 238.152 139.5C239.804 131.762 239.804 108.238 238.152 100.5C229.123 58.196 197.804 26.877 155.5 17.848C147.762 16.196 124.238 16.196 116.5 17.848C74.196 26.877 42.877 58.196 33.848 100.5C32.196 108.238 32.196 131.762 33.848 139.5C42.86 181.722 76.166 214.941 116.5 221.936C119.8 222.508 123.625 223.176 125 223.42C129.829 224.277 150.574 223.13 157.5 221.623M129.45 190.593C119.361 186.199 116.978 172.787 124.882 164.882C131.369 158.396 140.631 158.396 147.118 164.882C159.529 177.294 145.566 197.613 129.45 190.593M130.455 125.545L128 123.091L128 88L128 52.909L130.455 50.455C132.002 48.907 134.052 48 136 48C137.948 48 139.998 48.907 141.545 50.455L144 52.909L144 88L144 123.091L141.545 125.545C139.998 127.093 137.948 128 136 128C134.052 128 132.002 127.093 130.455 125.545" />
    <glyph glyph-name="check-single"
      unicode="&#xEA0C;"
      horiz-adv-x="256" d="M183.78 171.23C153.819 131.779 119.899 87.052 108.402 71.839L87.5 44.177L51.753 79.831L16.006 115.484L10.26 109.739L4.515 103.994L46.492 62.008C85.879 22.613 88.568 20.131 90.101 21.762C90.999 22.718 106.053 42.4 123.555 65.5C141.057 88.6 176.588 135.4 202.514 169.5C228.439 203.6 249.95 232.012 250.315 232.638C250.865 233.579 244.32 239.357 239.378 242.293C238.693 242.7 217.039 215.023 183.78 171.23" />
    <glyph glyph-name="arrow-top-right"
      unicode="&#xEA0D;"
      horiz-adv-x="256" d="M114.452 237.354C111.174 233.816 111.248 229.601 114.646 226.452L117.292 224L164.894 224L212.496 224L114.521 126.021C17.149 28.645 16.545 28.017 16.545 24.034C16.545 18.81 18.81 16.545 24.034 16.545C28.017 16.545 28.645 17.149 126.021 114.521L224 212.496L224 164.7L224 116.905L226.646 114.452C230.016 111.329 233.984 111.329 237.354 114.452L240 116.905L240 175.998L240 235.091L237.545 237.545L235.091 240L175.998 240L116.905 240L114.452 237.354" />
    <glyph glyph-name="arrow-sm-down"
      unicode="&#xEA0E;"
      horiz-adv-x="256" d="M50.646 157.548C48.82 155.855 48 154.078 48 151.812C48 148.825 51.451 145.078 86.265 110.265C121.918 74.611 124.766 72 128 72C131.234 72 134.082 74.611 169.735 110.265C203.574 144.103 208 148.886 208 151.618C208 155.943 204.046 160 199.831 160C196.877 160 193.312 156.75 162.284 125.769L128 91.539L93.716 125.769C56.143 163.285 56.529 163 50.646 157.548" />
    <glyph glyph-name="down-arrow"
      unicode="&#xEA0F;"
      horiz-adv-x="256" d="M2.646 189.548C0.818 187.854 0 186.079 0 183.807C0 180.79 5.155 175.363 62.259 118.259C120.764 59.753 124.728 56 128 56C131.272 56 135.236 59.753 193.741 118.259C249.265 173.783 256 180.853 256 183.613C256 187.95 252.049 192 247.818 192C244.819 192 239.587 187.049 186.27 133.762L128 75.523L69.73 133.762C5.88 197.577 8.742 195.197 2.646 189.548" />
    <glyph glyph-name="coins"
      unicode="&#xEA10;"
      horiz-adv-x="256" d="M103 238.448C83.606 235.726 71.573 231.993 55.739 223.787C46.269 218.88 39.156 212.314 35.386 205C33.013 200.397 32.55 198.277 32.55 192C32.55 185.723 33.013 183.603 35.386 179C39.699 170.632 46.711 164.652 59.456 158.47C81.359 147.847 97.299 144.582 127.5 144.533C150.673 144.495 163.423 146.211 179.779 151.568C200.998 158.519 214.855 167.828 220.614 179C222.987 183.603 223.45 185.723 223.45 192C223.45 201.27 220.316 208.092 212.764 215.262C203.16 224.379 179.91 234.023 159 237.562C145.553 239.838 116.21 240.302 103 238.448M145.576 222.935C172.581 220.302 196.382 211.232 204.617 200.436C208.619 195.188 208.636 188.834 204.663 183.624C192.624 167.841 151.727 157.616 113.595 160.856C67.781 164.749 38.414 183.432 51.383 200.436C63.802 216.717 105.99 226.794 145.576 222.935M34.529 157.44C31.824 154.933 31.776 154.687 32.2 145.69C32.556 138.15 33.135 135.512 35.427 131C39.661 122.664 46.681 116.666 59.456 110.47C73.237 103.786 80.305 101.485 95.5 98.736C111.74 95.798 142.219 95.612 158.5 98.351C179.911 101.953 203.072 111.534 212.877 120.845C220.345 127.937 223.275 134.559 223.787 145.5C224.187 154.052 224.081 154.637 221.652 157.25C218.613 160.519 214.621 160.817 211.01 158.042C208.804 156.348 208.455 155.162 207.958 147.669C207.478 140.441 206.99 138.676 204.611 135.556C195.961 124.215 171.64 115.34 142.405 112.856C104.273 109.616 63.376 119.841 51.337 135.624C48.892 138.831 48.451 140.42 48.146 147.139C47.85 153.641 47.402 155.353 45.443 157.467C42.36 160.793 38.137 160.783 34.529 157.44M34.529 109.44C31.824 106.933 31.776 106.687 32.2 97.69C32.556 90.15 33.135 87.512 35.427 83C39.661 74.664 46.681 68.666 59.456 62.47C73.237 55.786 80.305 53.485 95.5 50.736C111.74 47.798 142.219 47.612 158.5 50.351C179.911 53.953 203.072 63.534 212.877 72.845C220.345 79.937 223.275 86.559 223.787 97.5C224.187 106.052 224.081 106.637 221.652 109.25C218.613 112.519 214.621 112.817 211.01 110.042C208.804 108.348 208.455 107.162 207.958 99.669C207.478 92.441 206.99 90.676 204.611 87.556C195.961 76.215 171.64 67.34 142.405 64.856C104.273 61.616 63.376 71.841 51.337 87.624C48.892 90.831 48.451 92.42 48.146 99.139C47.85 105.641 47.402 107.353 45.443 109.467C42.36 112.793 38.137 112.783 34.529 109.44M34.529 61.44C31.824 58.933 31.776 58.687 32.2 49.69C32.556 42.15 33.135 39.512 35.427 35C39.661 26.664 46.681 20.666 59.456 14.47C73.237 7.786 80.305 5.485 95.5 2.736C111.74 -0.202 142.219 -0.388 158.5 2.351C179.911 5.953 203.072 15.534 212.877 24.845C220.345 31.937 223.275 38.559 223.787 49.5C224.187 58.052 224.081 58.637 221.652 61.25C218.613 64.519 214.621 64.817 211.01 62.042C208.804 60.348 208.455 59.162 207.958 51.669C207.478 44.441 206.99 42.676 204.611 39.556C195.961 28.215 171.64 19.34 142.405 16.856C104.273 13.616 63.376 23.841 51.337 39.624C48.892 42.831 48.451 44.42 48.146 51.139C47.85 57.641 47.402 59.353 45.443 61.467C42.36 64.793 38.137 64.783 34.529 61.44" />
    <glyph glyph-name="gaming-controller"
      unicode="&#xEA11;"
      horiz-adv-x="256" d="M128 202.5L128 181L133.5 181L139 181L139 202.5L139 224L133.5 224L128 224L128 202.5M69.115 169.872C56.472 167.772 43.468 156.842 39.332 144.839C36.295 136.021 15.856 32.589 16.36 28.587C16.94 23.991 19.367 20.404 24.092 17.161C26.87 15.254 28.456 14.899 32.673 15.237C37.551 15.628 38.995 16.513 57.991 30.747L78.135 45.841L81.536 44.421C86.828 42.21 95.666 42.628 101.5 45.366C107.926 48.382 111.696 52.198 114.722 58.75L117.147 64L133.323 63.99L149.5 63.979L152.246 58.077C155.23 51.664 160.604 46.622 166.825 44.4C171.429 42.756 180.398 42.727 185 44.34L188.5 45.567L206.08 32.391C225.188 18.069 230.291 15 235 15C241.976 15 249.585 21.45 250.619 28.24C251.23 32.247 230.052 137.114 226.968 145.356C222.546 157.175 209.09 167.829 195.931 169.931C182.175 172.129 172.398 168.555 160.564 157.004L152.363 149L133.569 149L114.775 149L108.457 155.823C100.685 164.218 92.948 168.583 83.389 169.965C75.667 171.081 76.424 171.086 69.115 169.872M91.007 156.4C94.093 154.72 99.065 150.474 102.886 146.255L109.457 139L133.502 139L157.547 139L165.493 146.993C175.565 157.124 180.013 159.371 190 159.371C199.429 159.371 205.2 156.796 211.517 149.77C214.818 146.099 216.529 143.007 217.955 138.135C219.024 134.486 224.508 108.626 230.143 80.669C237.8 42.678 240.124 29.417 239.343 28.169C238.768 27.251 236.994 26.369 235.399 26.208C233.024 25.969 229.61 28.111 216.5 38.068C207.7 44.751 199.738 50.757 198.806 51.414C197.24 52.519 197.311 53.01 199.742 57.922C206.135 70.841 200.816 86.282 187.553 93.307C181.835 96.336 170.161 96.333 164.437 93.302C158.864 90.351 153.319 84.403 151.361 79.276L149.728 75L133.392 75L117.056 75L114.888 80.038C110.552 90.118 99.183 96.815 88.311 95.693C69.987 93.801 58.895 74.243 66.839 57.833C68.028 55.377 69 53.079 69 52.726C69 51.804 33.17 25 31.937 25C29.669 25 25.948 29.943 26.495 32.229C26.794 33.478 31.761 57.45 37.533 85.5C43.304 113.55 48.517 138.075 49.118 140C54.367 156.835 75.212 164.996 91.007 156.4M97.98 83.248C103.377 80.537 106 75.815 106 68.813C106 63.386 105.705 62.607 102.25 58.909C91.425 47.323 73.468 55.716 75.25 71.527C76.464 82.294 88.019 88.253 97.98 83.248M184.01 82.75C191.588 77.593 193.775 70.299 190.052 62.606C184.069 50.249 166.31 50.765 161.471 63.437C157.401 74.094 164.749 85 176 85C179.232 85 181.739 84.296 184.01 82.75" />
    <glyph glyph-name="savings"
      unicode="&#xEA12;"
      horiz-adv-x="256" d="M117.893 242.626C96.145 234.948 82.611 212.882 85.965 190.566C90.728 158.872 124.987 140.392 153.635 154.064C178.621 165.989 188.109 195.098 175.272 220.446C172.059 226.791 162.791 236.059 156.446 239.272C144.019 245.565 129.739 246.807 117.893 242.626M140.201 233.891C155.614 230.667 166.715 219.428 169.948 203.777C173.198 188.046 164.52 171.32 149.193 163.774C143.17 160.809 141.692 160.5 133.521 160.5C125.503 160.5 123.777 160.844 118 163.595C109.739 167.527 103.527 173.739 99.595 182C96.837 187.793 96.503 189.479 96.523 197.5C96.543 205.11 96.957 207.383 99.203 212.218C104.307 223.202 114.836 231.71 126.045 233.908C132.36 235.145 134.216 235.143 140.201 233.891M128 197L128 181L133.5 181L139 181L139 197L139 213L133.5 213L128 213L128 197M53.056 136.91C46.258 135.576 34.78 129.71 26.5 123.336L19.036 117.591L21.268 115.206C24.928 111.296 37.476 103.342 43.696 100.988C50.691 98.341 62.569 96.083 69.75 96.035L75 96L75 101.5L75 107L67.358 107C58.396 107 49.001 109.542 41.076 114.112L35.652 117.239L39.576 119.626C57.465 130.506 80.757 130.461 99.62 119.509C106.482 115.525 116.926 104.586 120.638 97.494C124.04 90.996 127 81.738 127 77.596L127 75L100.5 75C82.655 75 74 74.657 74 73.95C74 73.372 76.7 56.745 80 37C83.3 17.255 86 0.853 86 0.55C86 0.248 107.27 0 133.268 0L180.535 0L186.349 35.25C189.546 54.637 192.4 71.512 192.69 72.75L193.217 75L166.108 75C135.338 75 137.927 74.051 140.584 84.356C142.823 93.04 147.326 100.975 154.399 108.698C166.66 122.088 178.903 127.416 197.5 127.456C206.373 127.475 209.757 127.044 215 125.223C222.3 122.689 229.165 119.046 229.698 117.423C230.205 115.877 221.078 111.167 213.222 108.92C209.375 107.82 203.408 107 199.253 107L192 107L192 101.35L192 95.701L200.75 96.33C211.863 97.131 219.717 99.182 228.297 103.526C234.546 106.689 246.079 115.108 246.809 117.039C247.347 118.459 234.79 127.856 227.5 131.49C216.304 137.071 209.613 138.331 194.5 137.705C180.164 137.112 175.636 135.992 164.72 130.338C155.629 125.63 141.864 112.246 136.82 103.211L133.309 96.922L129.501 103.434C119.764 120.083 104.923 131.544 87.244 136.065C79.117 138.144 61.562 138.577 53.056 136.91M180.016 63.25C180.025 62.838 178.123 50.912 175.79 36.75L171.548 11L133.274 11C112.223 11 94.993 11.338 94.984 11.75C94.975 12.162 93.022 24.088 90.644 38.25L86.32 64L133.16 64C158.922 64 180.007 63.662 180.016 63.25" />
    <glyph glyph-name="ranking"
      unicode="&#xEA13;"
      horiz-adv-x="256" d="M206.363 178.048L174.441 130.152L136.97 157.002L99.5 183.852L82.747 150.426L65.994 117L43.497 117L21 117L21 112L21 107L44.25 107.037L67.5 107.074L122.019 79.927L176.537 52.779L211.019 75.533C229.983 88.047 245.898 98.642 246.384 99.077C246.876 99.517 246.02 101.84 244.451 104.319L241.635 108.771L208.614 86.742L175.592 64.713L126.296 89.355C99.183 102.908 77.024 114.335 77.054 114.749C77.083 115.162 83.059 127.335 90.333 141.801L103.558 168.102L140.529 141.683L177.5 115.265L212.422 167.647C250.972 225.471 248.246 220.038 240.893 224.398L238.286 225.944L206.363 178.048M34.175 53.361C26.351 37.702 20.164 24.543 20.427 24.119C21.058 23.097 28.914 19.573 29.399 20.094C29.607 20.317 36.126 33.206 43.885 48.735L57.992 76.97L53.196 79.401L48.399 81.831L34.175 53.361" />
    <glyph glyph-name="books"
      unicode="&#xEA14;"
      horiz-adv-x="256" d="M179.5 227.461C164.1 223.949 150.938 221.058 150.25 221.038C149.563 221.017 149 221.675 149 222.5C149 223.819 140.673 224 80.057 224L11.115 224L10.807 156.25C10.638 118.988 10.635 73.312 10.8 54.75L11.1 21L80.05 21L149 21L149.121 53.25C149.188 70.988 149.143 103.275 149.022 125C148.9 146.725 149.038 164.27 149.328 163.99C149.799 163.532 159.301 122.167 165.519 93.5C167.725 83.332 173.378 58.295 179.539 31.405L182.081 20.31L218.291 28.464C246.053 34.717 254.457 36.955 254.314 38.06C254.054 40.072 241.593 96.438 237.526 114C235.679 121.975 228.857 152.237 222.367 181.25C212.982 223.208 210.253 233.984 209.034 233.923C208.19 233.881 194.9 230.973 179.5 227.461M215.27 164.33C222.267 133.161 227.85 107.516 227.676 107.342C226.821 106.487 176.919 95.748 176.367 96.3C174.966 97.701 150.462 209.514 151.464 209.935C153.726 210.884 197.662 220.804 200.023 220.899L202.547 221L215.27 164.33M74 154.5L74 96L47.5 96L21 96L21 154.5L21 213L47.5 213L74 213L74 154.5M139 154.5L139 96L112.5 96L86 96L86 154.5L86 213L112.5 213L139 213L139 154.5M235.891 72.5C238.689 59.85 241.096 48.406 241.239 47.068C241.495 44.679 241.055 44.536 216.009 38.893C201.989 35.734 190.384 33.283 190.221 33.446C189.535 34.132 178.969 82.6 179.223 83.897C179.416 84.888 187.069 87.038 204.5 90.999C218.25 94.124 229.793 96.415 230.152 96.09C230.51 95.766 233.093 85.15 235.891 72.5M74 58.5L74 32L47.5 32L21 32L21 58.5L21 85L47.5 85L74 85L74 58.5M139 58.5L139 32L112.5 32L86 32L86 58.5L86 85L112.5 85L139 85L139 58.5" />
    <glyph glyph-name="arrow-right"
      unicode="&#xEA15;"
      horiz-adv-x="256" d="M162.452 213.354C157 207.471 156.715 207.857 194.231 170.284L228.461 136L116.685 136L4.909 136L2.455 133.545C-0.793 130.298 -0.793 125.702 2.455 122.455L4.909 120L116.685 120L228.461 120L194.231 85.716C163.25 54.688 160 51.123 160 48.169C160 43.954 164.057 40 168.383 40C171.122 40 176.284 44.811 213.737 82.263C253.199 121.725 256 124.757 256 128C256 131.243 253.199 134.275 213.737 173.737C175.209 212.265 171.183 216 168.189 216C165.922 216 164.145 215.181 162.452 213.354" />
    <glyph glyph-name="blockchain"
      unicode="&#xEA16;"
      horiz-adv-x="256" d="M36.107 239.039C15.665 228.84 1.691 221.291 1.056 220.105C0.362 218.808 0 203.535 0 175.566C0 134.375 0.064 132.936 1.994 131.006C4.657 128.343 69.411 96 72.08 96C75.842 96 93.582 105.788 94.846 108.56C96.504 112.2 96.279 114.323 93.972 116.799C91.147 119.831 87.904 120.404 83.642 118.624L80 117.102L80 148.047L80 178.992L104 191L128 203.008L128 179.956L128 156.905L130.646 154.452C134.016 151.329 137.984 151.329 141.354 154.452L144 156.905L144 187.518C144 207.097 143.619 218.843 142.944 220.105C141.775 222.289 75.149 256 72 256C70.956 256 54.804 248.367 36.107 239.039M94.494 227.76C106.872 221.579 117 216.286 117 216C117 215.714 106.875 210.423 94.5 204.243L72 193.006L49.5 204.243C37.125 210.423 27 215.714 27 216C27 216.387 70.362 238.621 71.744 238.943C71.879 238.974 82.116 233.942 94.494 227.76M64 147.992L64 116.992L40 129L16 141.008L16 172.008L16 203.008L40 191L64 178.992L64 147.992M148.107 143.039C127.665 132.84 113.691 125.291 113.056 124.105C112.362 122.808 112 107.535 112 79.566C112 38.375 112.064 36.936 113.994 35.006C116.608 32.392 181.387 0 184 0C186.613 0 251.392 32.392 254.006 35.006C255.936 36.936 256 38.375 256 79.566C256 107.535 255.638 122.808 254.944 124.105C253.775 126.289 187.149 160 184 160C182.956 160 166.804 152.367 148.107 143.039M206.494 131.76C218.872 125.579 229 120.286 229 120C229 119.714 218.875 114.423 206.5 108.243L184 97.006L161.5 108.243C149.125 114.423 139 119.714 139 120C139 120.387 182.362 142.621 183.744 142.943C183.879 142.974 194.116 137.942 206.494 131.76M176 51.992L176 20.992L152 33L128 45.008L128 76.008L128 107.008L152 95L176 82.992L176 51.992M240 76.004L240 45.008L216 33L192 20.992L192 51.992L192 82.992L215.75 94.942C228.813 101.515 239.613 106.917 239.75 106.946C239.887 106.976 240 93.052 240 76.004" />
    <glyph glyph-name="shopping-cart"
      unicode="&#xEA17;"
      horiz-adv-x="256" d="M2.646 253.548C0.883 251.914 0 250.063 0 248C0 245.937 0.883 244.086 2.646 242.452C5.287 240.005 5.335 240 27.146 240C44.571 240 49 239.733 49 238.681C49 232.638 64.241 102.416 65.147 100.715C65.796 99.497 67.041 97.952 67.913 97.282C70.242 95.494 216.411 95.487 220 97.275C222.196 98.368 224.344 103.994 237.654 143.51C256.304 198.878 256.715 200.295 255.045 203.415C254.35 204.715 252.684 206.279 251.343 206.89C249.627 207.671 227.068 208 175.099 208L101.292 208L98.646 205.548C95.094 202.256 95.094 197.744 98.646 194.452L101.292 192L169.253 192C223.202 192 237.119 191.742 236.752 190.75C236.498 190.062 230.491 172.062 223.405 150.75L210.519 112L144.76 112C91.009 112 79 112.241 79 113.318C79 116.223 63.922 248.624 63.402 250.284C63.095 251.265 61.894 252.952 60.733 254.034C58.744 255.887 57.088 256 31.957 256L5.292 256L2.646 253.548M70.396 62.642C60.571 59.423 51.337 49.558 48.914 39.691C46.285 28.985 49.726 17.108 57.703 9.355C64.617 2.635 69.993 0.5 80 0.5C90.007 0.5 95.383 2.635 102.297 9.355C109.11 15.976 111.5 21.858 111.5 32C111.5 38.89 111.057 41.399 109.161 45.25C106.067 51.533 99.617 58.039 93.589 60.957C87.642 63.836 76.51 64.644 70.396 62.642M198.396 62.642C188.571 59.423 179.337 49.558 176.914 39.691C174.285 28.985 177.726 17.108 185.703 9.355C192.617 2.635 197.993 0.5 208 0.5C218.007 0.5 223.383 2.635 230.297 9.355C237.11 15.976 239.5 21.858 239.5 32C239.5 38.89 239.057 41.399 237.161 45.25C234.067 51.533 227.617 58.039 221.589 60.957C215.642 63.836 204.51 64.644 198.396 62.642M86.329 46.636C96.603 42.343 99.108 28.873 91.118 20.882C84.631 14.396 75.369 14.396 68.882 20.882C56.516 33.249 70.161 53.391 86.329 46.636M214.329 46.636C224.603 42.343 227.108 28.873 219.118 20.882C212.631 14.396 203.369 14.396 196.882 20.882C184.516 33.249 198.161 53.391 214.329 46.636" />
    <glyph glyph-name="drop"
      unicode="&#xEA18;"
      horiz-adv-x="256" d="M124.38 254.715C117.034 250.505 78.886 203.337 63.55 179.5C32.427 131.125 25.745 100.395 38.325 63.5C48.282 34.299 73.553 11.551 105.737 2.818C116.827 -0.191 139.173 -0.191 150.263 2.818C172.841 8.945 192.184 22.028 205.615 40.258C215.837 54.133 222.102 72.062 223.583 91.677C225.825 121.379 210.829 156.119 175.315 203.5C159.649 224.399 149.708 236.507 139.393 247.25C130.728 256.275 128.788 257.24 124.38 254.715M132.52 231.189C146.499 215.641 165.891 190.351 178.289 171.5C194.865 146.295 203.5 127.443 206.674 109.527C211.143 84.305 201.71 56.215 182.765 38.33C168.144 24.527 147.26 16.018 128 16.018C118.135 16.018 102.88 19.511 94.711 23.64C67.437 37.425 52.13 59.254 48.812 89.094C47.772 98.445 47.84 101.142 49.326 109.527C50.267 114.84 52.583 123.307 54.472 128.343C63.203 151.618 85.958 186.628 113.943 219.844C119.199 226.084 124.375 232.271 125.445 233.594C126.515 234.917 127.571 236 127.792 236C128.014 236 130.141 233.835 132.52 231.189M82.455 104.545C79.56 101.651 79.363 98.458 81.424 87.838C83.217 78.598 85.119 74.107 90.089 67.379C98.486 56.012 113.914 48 127.403 48C131.748 48 136 51.861 136 55.806C136 60.493 132.315 63.57 125.783 64.338C118.418 65.203 112.53 67.839 106.991 72.749C101.037 78.027 98.027 84.346 96.481 94.815C95.488 101.535 94.728 103.802 92.995 105.205C89.842 107.758 85.389 107.48 82.455 104.545" />
    <glyph glyph-name="laptop-2"
      unicode="&#xEA19;"
      horiz-adv-x="256" d="M34.646 205.548L32 203.095L32 136L32 68.905L34.646 66.452L37.292 64L128.194 64L219.095 64L221.548 66.646L224 69.292L224 136L224 202.708L221.548 205.354L219.095 208L128.194 208L37.292 208L34.646 205.548M208 136L208 80L128 80L48 80L48 136L48 192L128 192L208 192L208 136M2.455 45.545C0.907 43.998 0 41.948 0 40C0 38.052 0.907 36.002 2.455 34.455L4.909 32L128 32L251.091 32L253.545 34.455C256.793 37.702 256.793 42.298 253.545 45.545L251.091 48L128 48L4.909 48L2.455 45.545" />
    <glyph glyph-name="factory"
      unicode="&#xEA1A;"
      horiz-adv-x="256" d="M56.64 254.515C29.833 248.93 6.248 224.565 1.545 197.599C-0.714 184.642 -0.528 181.393 2.646 178.452L5.292 176L104.194 176L203.095 176L205.548 178.646C208.285 181.599 208.516 184.08 206.976 194C204.486 210.046 191.354 227.133 175.859 234.488C161.954 241.088 145.501 241.47 130.887 235.532L124.733 233.032L118.989 238.35C112.649 244.22 100.022 250.932 90.5 253.493C82.042 255.769 65.112 256.279 56.64 254.515M83.201 238.917C93.17 236.881 104.032 230.654 112.815 221.942C117.219 217.574 121.559 214 122.461 214C123.364 214 127.566 215.801 131.801 218.001C148.868 226.871 164.661 225.367 178.487 213.556C183.529 209.248 189.024 200.568 190.392 194.75L191.038 192L103.891 192L16.744 192L17.388 196.25C18.241 201.89 23.951 213.421 29.078 219.86C35.733 228.218 46.617 235.242 58 238.524C63.63 240.147 76.22 240.344 83.201 238.917M2.646 157.548L0 155.095L0 88.229C0 12.479 -0.186 14.543 7.305 7.191C15.037 -0.397 8.38 0 128 0C247.62 0 240.963 -0.397 248.695 7.191C256.185 14.542 256 12.497 256 88.071C256 152.035 255.922 154.875 254.107 157.116C252.706 158.846 251.21 159.449 248.357 159.432C244.987 159.413 239.17 155.851 202.25 131.199L160 102.988L160 128.883C160 152.802 159.855 154.957 158.107 157.116C156.706 158.846 155.21 159.449 152.357 159.432C148.984 159.413 143.019 155.75 104.784 130.222L61.068 101.034L60.084 104.767C59.543 106.82 56.805 117.725 54 129C51.195 140.275 48.455 151.184 47.913 153.243C46.302 159.356 43.947 160 23.196 160C5.577 160 5.25 159.961 2.646 157.548M40.423 117.25C44.092 102.537 47.54 88.816 48.084 86.757C49.176 82.627 53.627 79.5 57.378 80.227C58.545 80.454 78.513 93.323 101.75 108.825L144 137.012L144 110.958L144 84.905L146.735 82.37C148.718 80.532 150.298 79.939 152.485 80.212C154.36 80.445 171.477 91.256 197.75 108.8L240 137.012L240 78.958L240 20.905L237.354 18.452L234.708 16L127.806 16L20.905 16L18.452 18.646L16 21.292L16 82.646L16 144L24.875 144L33.751 144L40.423 117.25" />
    <glyph glyph-name="heartbeat"
      unicode="&#xEA1B;"
      horiz-adv-x="256" d="M60 254.99C37.414 251.099 16.568 235.262 6.934 214.672C-3.65 192.053 -1.955 169.473 12.58 139.5C15.513 133.45 20.142 124.9 22.865 120.5L27.816 112.5L16.521 112.219C6.16 111.962 5.01 111.738 2.613 109.517C-0.905 106.256 -0.892 101.731 2.646 98.452C5.236 96.052 5.647 96 22.057 96L38.821 96L48.349 83.75C72.387 52.844 121.836 -0.014 126.703 -0.004C132.437 0.007 136.804 4.66 135.597 9.471C135.209 11.016 127.698 19.373 117.326 29.798C101.284 45.921 79.649 70.121 64.639 88.73L58.807 95.96L61.653 98.871C63.219 100.472 73.05 113.288 83.5 127.351C93.95 141.414 102.725 152.923 103 152.927C103.275 152.93 116.55 129.968 132.5 101.899C163.34 47.628 163.701 47.116 170.132 48.529C172.691 49.091 175.353 52.537 188.72 72.592L204.321 96L227.708 96L251.095 96L253.548 98.646C256.671 102.016 256.671 105.984 253.548 109.354L251.095 112L225.095 112C207.858 112 198.256 111.618 196.608 110.867C195.065 110.164 189.27 102.438 181.337 90.505L168.552 71.276L139.698 121.888C123.829 149.725 109.93 173.287 108.811 174.25C106.235 176.468 102.116 176.458 99.38 174.228C98.214 173.277 87.071 158.888 74.617 142.25C55.876 117.212 51.559 112 49.564 112C46.883 112 42.624 117.844 32.802 135C21.356 154.994 16.634 169.232 16.553 184C16.446 203.242 23.975 217.877 40.009 229.593C64.523 247.507 100.759 241.182 117.449 216.077C123.168 207.474 124.017 206.801 128.67 207.185C131.962 207.457 132.958 208.18 135.99 212.5C145.948 226.686 158.595 235.528 173.459 238.695C208.519 246.166 242.687 216.487 239.596 181.246C238.779 171.939 235.989 161.457 231.965 152.583C227.803 143.403 228.047 140.061 233.072 137.463C239.922 133.921 243.033 136.66 248.731 151.249C253.752 164.104 255.454 172.778 255.455 185.5C255.455 198.025 254.031 204.016 248.206 216C244.315 224.004 242.164 226.935 234.544 234.612C227.162 242.049 223.938 244.49 217 247.893C206.208 253.187 199.869 254.882 188 255.648C181.067 256.0950000000001 176.379 255.821 170.651 254.632C156.672 251.731 139.693 242.248 131.239 232.619L128.156 229.108L121.127 236.012C105.629 251.235 81.57 258.705 60 254.99" />
    <glyph glyph-name="home"
      unicode="&#xEA1C;"
      horiz-adv-x="256" d="M118.787 250.168C51.801 188.026 3.137 142.287 1.755 140.171C-0.541 136.655 -0.457 133.867 2.028 131.201C4.776 128.251 8.745 127.378 11.555 129.106C12.803 129.872 39.372 154.35 70.598 183.5C101.824 212.65 127.667 236.5 128.027 236.5C128.387 236.5 154.227 212.65 185.448 183.5C216.669 154.35 243.226 129.872 244.463 129.106C247.252 127.377 251.225 128.252 253.972 131.201C256.457 133.867 256.541 136.655 254.245 140.171C252.863 142.287 204.199 188.026 137.213 250.168C132.525 254.517 130.183 256 128 256C125.817 256 123.475 254.517 118.787 250.168M34.646 125.548L32 123.095L32 64L32 4.905L34.646 2.452L37.292 0L72.194 0L107.095 0L109.548 2.646L112 5.292L112 34.646L112 64L128 64L144 64L144 34.452L144 4.905L146.646 2.452L149.292 0L184.194 0L219.095 0L221.548 2.646L224 5.292L224 64L224 122.708L221.548 125.354C218.399 128.752 214.184 128.826 210.646 125.548L208 123.095L208 69.548L208 16L184 16L160 16L160 45.354L160 74.708L157.548 77.354L155.095 80L128.194 80L101.292 80L98.646 77.548L96 75.095L96 45.548L96 16L72 16L48 16L48 69.354L48 122.708L45.548 125.354C42.399 128.752 38.184 128.826 34.646 125.548" />
    <glyph glyph-name="antenna"
      unicode="&#xEA1D;"
      horiz-adv-x="256" d="M32.201 249.25C-1.031 213.705 -9.277 161.161 11.489 117.266C16.66 106.336 23.725 95.871 31.751 87.25C38.184 80.34 41.744 79.249 45.733 82.966C50.32 87.239 49.525 91.349 42.673 98.778C31.47 110.924 22.207 129.035 18.323 146.385C16.163 156.032 16.163 179.968 18.323 189.615C22.207 206.965 31.47 225.076 42.673 237.222C49.525 244.651 50.32 248.761 45.733 253.034C41.838 256.663 38.173 255.638 32.201 249.25M194.267 253.034C189.68 248.761 190.475 244.651 197.327 237.222C208.53 225.076 217.793 206.965 221.677 189.615C223.837 179.968 223.837 156.032 221.677 146.385C217.793 129.035 208.53 110.924 197.327 98.778C190.475 91.349 189.68 87.239 194.267 82.966C198.256 79.249 201.816 80.34 208.249 87.25C241.103 122.538 249.183 175.037 228.492 218.774C223.519 229.285 215.704 240.796 207.799 249.25C201.827 255.638 198.162 256.663 194.267 253.034M67.327 216.738C56.15 204.613 49.502 189.382 48.359 173.281C46.939 153.269 53.682 134.064 67.327 119.262C70.352 115.979 71.979 115 74.405 115C80.396 115 84.106 119.961 82.087 125.271C81.583 126.597 79.257 129.89 76.918 132.591C69.486 141.171 64.035 156.154 64.035 168C64.035 179.846 69.486 194.829 76.918 203.409C82.349 209.679 83.449 212.503 81.908 216.222C80.514 219.588 78.234 221 74.193 221C72.016 221 70.237 219.896 67.327 216.738M160.881 219.993C159.991 219.473 158.733 217.769 158.086 216.208C156.552 212.504 157.657 209.672 163.082 203.409C170.514 194.829 175.965 179.846 175.965 168C175.965 156.154 170.514 141.171 163.082 132.591C160.743 129.89 158.417 126.597 157.913 125.271C155.894 119.961 159.604 115 165.595 115C168.021 115 169.648 115.979 172.673 119.262C186.318 134.064 193.061 153.269 191.641 173.281C190.498 189.382 183.85 204.613 172.673 216.738C168.622 221.134 164.691 222.219 160.881 219.993M111.899 190.444C105.11 188.352 98.601 181.044 96.948 173.657C95.024 165.06 96.872 158.12 102.762 151.823C105.264 149.148 108.366 146.695 109.656 146.372L112 145.783L112 80.892L112 16L90.455 16C68.912 16 68.909 16 66.455 13.545C63.207 10.298 63.207 5.702 66.455 2.455L68.909 0L120 0L171.091 0L173.545 2.455C176.793 5.702 176.793 10.298 173.545 13.545C171.091 16 171.088 16 149.545 16L128 16L128 80.892L128 145.783L130.344 146.372C131.634 146.695 134.736 149.148 137.238 151.823C146.118 161.317 146.125 174.676 137.254 184.16C130.469 191.413 121.924 193.531 111.899 190.444M125.354 173.548C128.752 170.399 128.826 166.184 125.548 162.646C120.737 157.455 112 161.032 112 168.194C112 171.838 116.265 176 120 176C121.489 176 123.899 174.896 125.354 173.548" />
    <glyph glyph-name="office"
      unicode="&#xEA1E;"
      horiz-adv-x="256" d="M50.646 253.548L48 251.095L48 192L48 132.905L50.646 130.452C54.184 127.174 58.399 127.248 61.548 130.646L64 133.292L64 186.646L64 240L128 240L192 240L192 202.452L192 164.905L194.646 162.452C198.184 159.174 202.399 159.248 205.548 162.646L208 165.292L208 208L208 250.708L205.548 253.354L203.095 256L128.194 256L53.292 256L50.646 253.548M98.455 205.545C96.907 203.998 96 201.948 96 200C96 198.052 96.907 196.002 98.455 194.455L100.909 192L128 192L155.091 192L157.545 194.455C159.093 196.002 160 198.052 160 200C160 201.948 159.093 203.998 157.545 205.545L155.091 208L128 208L100.909 208L98.455 205.545M146.452 141.354L144 138.708L144 77.354L144 16L128 16L112 16L112 61.354L112 106.708L109.548 109.354L107.095 112L56 112L4.905 112L2.452 109.354L0 106.708L0 55.806L0 4.905L2.646 2.452L5.292 0L128 0L250.708 0L253.354 2.452L256 4.905L256 71.806L256 138.708L253.548 141.354L251.095 144L200 144L148.905 144L146.452 141.354M240 72L240 16L200 16L160 16L160 72L160 128L200 128L240 128L240 72M96 56L96 16L56 16L16 16L16 56L16 96L56 96L96 96L96 56M178.455 93.545C176.907 91.998 176 89.948 176 88C176 86.052 176.907 84.002 178.455 82.455C180.889 80.02 181.064 80 200 80C218.936 80 219.111 80.02 221.545 82.455C223.093 84.002 224 86.052 224 88C224 89.948 223.093 91.998 221.545 93.545C219.111 95.98 218.936 96 200 96C181.064 96 180.889 95.98 178.455 93.545M34.455 61.545C32.907 59.998 32 57.948 32 56C32 54.052 32.907 52.002 34.455 50.455C36.889 48.02 37.064 48 56 48C74.936 48 75.111 48.02 77.545 50.455C79.093 52.002 80 54.052 80 56C80 57.948 79.093 59.998 77.545 61.545C75.111 63.98 74.936 64 56 64C37.064 64 36.889 63.98 34.455 61.545M178.455 61.545C176.907 59.998 176 57.948 176 56C176 54.052 176.907 52.002 178.455 50.455C180.889 48.02 181.064 48 200 48C218.936 48 219.111 48.02 221.545 50.455C223.093 52.002 224 54.052 224 56C224 57.948 223.093 59.998 221.545 61.545C219.111 63.98 218.936 64 200 64C181.064 64 180.889 63.98 178.455 61.545" />
    <glyph glyph-name="bulb"
      unicode="&#xEA1F;"
      horiz-adv-x="256" d="M114.5 254.9C94.027 251.977 72.301 240.646 58.29 225.583C26.591 191.504 23.434 141.553 50.57 103.464C55.79 96.137 64.195 88.039 73.25 81.614L80 76.824L80 40.864L80 4.905L82.646 2.452L85.292 0L128 0L170.708 0L173.354 2.452L176 4.905L176 40.811L176 76.717L181.25 80.219C210.723 99.878 227.675 136.799 223.08 171.323C221.088 186.296 215.223 202.332 207.654 213.5C202.307 221.391 189.068 234.627 181.317 239.832C162.46 252.494 137.338 258.159 114.5 254.9M141.201 238.912C159.98 235.057 172.304 228.529 184.783 215.827C197.227 203.16 203.211 191.515 207.049 172.5C209.93 158.221 205.768 135.332 197.699 121.087C192.022 111.065 180.416 98.894 170.299 92.353C165.788 89.437 161.626 86.169 161.049 85.091C160.431 83.937 160 75.91 160 65.566L160 48L128 48L96 48L96 65.566C96 75.91 95.569 83.937 94.951 85.091C94.374 86.169 90.124 89.489 85.506 92.467C68.733 103.288 56.915 118.912 51.581 137.318C40.699 174.87 57.841 214.127 92.907 231.96C106.138 238.688 127.389 241.748 141.201 238.912M161.618 205.405C133.733 199.624 106.379 188.244 96.075 178.14C89.291 171.488 85.494 165.75 82.915 158.252L81.036 152.792L83.268 153.341C86.723 154.191 128.437 162 129.521 162C130.05 162 120.627 152.136 108.581 140.081L86.678 118.161L90.441 116.589C101.917 111.794 109.631 111.003 121.131 113.44C130.879 115.506 137.596 119.346 145.521 127.381C159.965 142.026 169.354 166.201 175.567 204.75C176.193 208.636 177.011 208.597 161.618 205.405M160 24L160 16L128 16L96 16L96 24L96 32L128 32L160 32L160 24" />
    <glyph glyph-name="e-remove"
      unicode="&#xEA20;"
      horiz-adv-x="256" d="M36.229 223.331C34.021 222.442 31.791 216.974 32.482 214.142C32.893 212.455 48.186 196.411 74.797 169.75L116.468 128L74.234 85.723C35.816 47.266 32 43.15 32 40.175C32 37.923 32.824 36.141 34.646 34.452C37.534 31.776 39.946 31.401 43.316 33.105C44.517 33.712 64.06 52.72 86.744 75.344L127.988 116.479L169.744 74.803C198.216 46.385 212.399 32.906 214.327 32.435C219.498 31.172 224 35.281 224 41.265C224 42.743 211.012 56.412 181.771 85.705L139.543 128.011L181.208 169.755C207.816 196.413 223.107 212.455 223.518 214.142C224.257 217.172 221.947 222.423 219.455 223.379C214.033 225.459 213.92 225.363 170.283 181.771L128.011 139.543L85.705 181.771C48.57 218.839 43.039 223.99 40.45 223.921C38.827 223.878 36.928 223.612 36.229 223.331" />
    <glyph glyph-name="search"
      unicode="&#xEA21;"
      horiz-adv-x="256" d="M93 255.42C91.625 255.176 87.8 254.508 84.5 253.936C48.969 247.774 16.402 219.05 5.205 184C1.543 172.538 0.567 165.802 0.567 152C0.567 133.876 3.378 121.338 10.767 106.5C25.329 77.261 51.971 56.791 84.5 49.848C92.238 48.196 115.762 48.196 123.5 49.848C165.752 58.866 197.134 90.248 206.152 132.5C207.804 140.238 207.804 163.762 206.152 171.5C197.281 213.064 166.13 244.782 125.5 253.623C118.574 255.13 97.829 256.277 93 255.42M125.224 237.071C151.79 230.274 173.347 212.33 183.908 188.224C189.622 175.18 191.272 167.064 191.272 152C191.272 136.936 189.622 128.82 183.908 115.776C179.705 106.182 174.6 98.795 166.302 90.299C155.013 78.739 142.171 71.399 125.224 66.817C114.287 63.859 93.713 63.859 82.776 66.817C65.829 71.399 52.987 78.739 41.698 90.299C30.066 102.209 23.308 114.163 18.817 130.776C15.859 141.713 15.859 162.287 18.817 173.224C23.399 190.171 30.739 203.013 42.299 214.302C56.245 227.923 72.215 235.919 91.539 238.956C100.021 240.289 116.182 239.385 125.224 237.071M194.455 61.545C192.848 59.939 192 57.96 192 55.816C192 52.867 194.607 49.935 218.271 26.271C241.935 2.607 244.867 0 247.816 0C249.96 0 251.939 0.848 253.545 2.455C255.152 4.061 256 6.04 256 8.184C256 11.133 253.393 14.065 229.729 37.729C206.065 61.393 203.133 64 200.184 64C198.04 64 196.061 63.152 194.455 61.545" />
    <glyph glyph-name="preferences"
      unicode="&#xEA22;"
      horiz-adv-x="256" d="M50.452 253.354C48.008 250.717 48 250.635 48 229.354L48 208L26.455 208C4.912 208 4.909 208 2.455 205.545C-0.793 202.298 -0.793 197.702 2.455 194.455C4.909 192 4.912 192 26.455 192L48 192L48 170.452L48 148.905L50.646 146.452L53.292 144L80 144L106.708 144L109.354 146.452L112 148.905L112 199.806L112 250.708L109.548 253.354L107.095 256L80 256L52.905 256L50.452 253.354M96 200L96 160L80 160L64 160L64 200L64 240L80 240L96 240L96 200M146.455 205.545C144.907 203.998 144 201.948 144 200C144 198.052 144.907 196.002 146.455 194.455L148.909 192L200 192L251.091 192L253.545 194.455C255.093 196.002 256 198.052 256 200C256 201.948 255.093 203.998 253.545 205.545L251.091 208L200 208L148.909 208L146.455 205.545M146.452 109.354L144 106.708L144 55.806L144 4.905L146.646 2.452L149.292 0L176 0L202.708 0L205.354 2.452L208 4.905L208 26.452L208 48L229.545 48C251.088 48 251.091 48 253.545 50.455C256.793 53.702 256.793 58.298 253.545 61.545C251.091 64 251.088 64 229.545 64L208 64L208 85.354C208 106.635 207.992 106.717 205.548 109.354L203.095 112L176 112L148.905 112L146.452 109.354M192 56L192 16L176 16L160 16L160 56L160 96L176 96L192 96L192 56M2.455 61.545C0.907 59.998 0 57.948 0 56C0 54.052 0.907 52.002 2.455 50.455L4.909 48L56 48L107.091 48L109.545 50.455C112.793 53.702 112.793 58.298 109.545 61.545L107.091 64L56 64L4.909 64L2.455 61.545" />
    <glyph glyph-name="move-layer-right"
      unicode="&#xEA23;"
      horiz-adv-x="256" d="M242.455 253.545L240 251.091L240 128L240 4.909L242.455 2.455C244.002 0.907 246.052 0 248 0C249.948 0 251.998 0.907 253.545 2.455L256 4.909L256 128L256 251.091L253.545 253.545C250.298 256.793 245.702 256.793 242.455 253.545M106.452 205.354C101.059 199.535 101.09 199.492 134.228 166.288L164.456 136L84.683 136L4.909 136L2.455 133.545C-0.793 130.298 -0.793 125.702 2.455 122.455L4.909 120L84.683 120L164.456 120L134.228 89.712C106.967 62.397 104 59.104 104 56.164C104 51.955 108.06 48 112.382 48C115.114 48 119.897 52.426 153.735 86.265C189.389 121.918 192 124.766 192 128C192 131.234 189.389 134.082 153.735 169.735C118.922 204.549 115.175 208 112.188 208C109.922 208 108.145 207.18 106.452 205.354" />
    <glyph glyph-name="new-notification-big"
      unicode="&#xEA24;"
      horiz-adv-x="256" d="M193.798 243.069C185.831 240.522 179.78 236.749 173.618 230.489C154.97 211.54 155.809 180.686 175.468 162.43C182.325 156.062 190.136 152.204 200.174 150.226C207.225 148.837 208.775 148.837 215.826 150.226C225.864 152.204 233.675 156.062 240.532 162.43C253.309 174.294 258.692 192.106 254.468 208.54C250.146 225.361 238.246 238.06 222.145 243.036C213.962 245.565 201.648 245.579 193.798 243.069M221.638 231.863C248.33 221.876 253.338 185.294 230.416 167.733C224.747 163.39 214.921 160 208 160C205.366 160 200.351 160.893 196.855 161.983C170.383 170.246 162.153 203.995 181.816 223.658C192.231 234.073 207.385 237.195 221.638 231.863M21 107L21 11L117 11L213 11L213 59L213 107L208 107L203 107L203 64L203 21L117.5 21L32 21L32 106.5L32 192L74.5 192L117 192L117 197.5L117 203L69 203L21 203L21 107" />
    <glyph glyph-name="folder-big"
      unicode="&#xEA25;"
      horiz-adv-x="256" d="M10.919 197.25C10.875 176.487 10.909 130.506 10.995 95.068L11.15 30.637L13.486 26.068C16.291 20.582 21 15.966 26.71 13.108C30.91 11.005 31.174 11 133.264 11L235.607 11L240.814 13.595C247.08 16.717 252.655 23.203 254.585 29.615C255.757 33.51 256 48.816 256 118.659L256 203L190.559 203L125.118 203L114.592 219L104.066 235L57.533 235L11 235L10.919 197.25M109 208L119.5 192.043L182.25 192.022L245 192L245 176L245 160L133 160L21 160L21 192L21 224L59.75 223.978L98.5 223.957L109 208M244.773 90.073C244.506 32.389 244.457 31.086 242.441 28.323C241.309 26.77 238.401 24.488 235.98 23.25L231.576 21L133.937 21C63.812 21 35.341 21.32 32.899 22.134C28.177 23.71 23.494 28.406 22.14 32.926C21.345 35.579 21 53.733 21 92.866L21 149L133.023 149L245.046 149L244.773 90.073" />
    <glyph glyph-name="direction"
      unicode="&#xEA26;"
      horiz-adv-x="256" d="M96 240L96 235L129.747 235L163.495 235L93.24 164.74L22.986 94.481L26.733 90.733L30.481 86.986L100.74 157.24L171 227.495L171 193.747L171 160L176 160L181 160L181 202.5L181 245L138.5 245L96 245L96 240M165.749 88.251L96 18.502L96 51.751L96 85L90.5 85L85 85L85 42.5L85 0L128 0L171 0L171 5.5L171 11L137.253 11L103.505 11L173.474 80.974L243.443 150.948L240.025 154.474C238.146 156.413 236.358 158 236.053 158C235.748 158 204.111 126.613 165.749 88.251" />
    <glyph glyph-name="user"
      unicode="&#xEA27;"
      horiz-adv-x="256" d="M117 254.886C107.478 253.361 96.45 247.147 88.237 238.677C75.387 225.425 70.292 209.883 72.854 191.75C76.214 167.961 96.047 148.119 119.75 144.832C138.462 142.238 154.647 147.797 167.763 161.323C176.836 170.681 181.463 179.832 183.146 191.75C185.708 209.883 180.613 225.425 167.763 238.677C154.093 252.775 137.302 258.136 117 254.886M143.829 236.478C155.898 230.953 164.399 220.36 167 207.605C172.493 180.671 148.258 155.922 121.261 160.896C94.062 165.908 80.272 194.707 93.281 219.327C98.096 228.438 109.259 236.873 119.344 239.022C126.252 240.493 137.644 239.31 143.829 236.478M116.5 119.414C107.462 118.13 100.657 116.626 93.5 114.331C49.616 100.259 19.68 61.557 16.382 14.63C15.718 5.194 15.724 5.16 18.504 2.584L21.292 0L128.194 0L235.095 0L237.666 2.75C240.16 5.418 240.217 5.777 239.595 14.796C237.771 41.221 228.726 62.815 211.108 82.808C195.786 100.196 174.472 112.433 150.5 117.603C143.56 119.1 122.268 120.234 116.5 119.414M140.549 102.93C154.599 100.976 170.711 94.965 181.5 87.654C189.33 82.348 202.621 69.08 207.7 61.5C214.795 50.911 221.493 33.148 222.682 21.766L223.285 16L128 16L32.715 16L33.318 21.766C34.515 33.222 41.25 51.03 48.346 61.5C53.652 69.33 66.92 82.621 74.5 87.7C93.19 100.223 118.331 106.02 140.549 102.93" />
    <glyph glyph-name="reload"
      unicode="&#xEA28;"
      horiz-adv-x="256" d="M82.452 253.354C77.36 247.86 78.181 246.452 98.215 226.311L116.429 208L95.965 207.993C56.858 207.979 43.539 203.539 24 184C10.186 170.186 3.903 158.388 1.366 141.5C-0.328 130.221 -0.328 125.779 1.366 114.5C3.903 97.612 10.186 85.814 24 72C37.814 58.186 49.612 51.903 66.5 49.366C79.489 47.415 82.248 47.574 85.354 50.452C90.837 55.534 86.951 64 79.136 64C63.797 64 46.772 71.26 35.368 82.665C23.485 94.547 17.455 107.656 16.395 123.911C14.489 153.149 32.762 179.753 61.326 189.326C67.007 191.231 70.347 191.426 103.187 191.775L138.874 192.154L141.437 194.529C143.183 196.147 144 197.949 144 200.181C144 203.134 141.4 206.058 117.729 229.729C94.058 253.4 91.134 256 88.181 256C85.922 256 84.143 255.178 82.452 253.354M170.452 205.354C167.236 201.884 167.251 197.599 170.49 194.597C172.479 192.754 174.588 192.155 180.971 191.623C196.853 190.298 209.726 184.242 221.335 172.632C241.487 152.481 245.615 121.674 231.538 96.501C226.001 86.6 215.295 76.409 204.973 71.213C192.083 64.725 186.446 64 148.864 64L116.905 64L114.452 61.354C112.952 59.735 112 57.511 112 55.625C112 52.926 115.272 49.271 138.271 26.271C161.271 3.272 164.926 0 167.625 0C171.928 0 176 3.959 176 8.141C176 11.001 173.881 13.508 157.785 29.689L139.571 48L160.035 48.007C199.142 48.021 212.461 52.461 232 72C245.814 85.814 252.097 97.612 254.634 114.5C256.328 125.779 256.328 130.221 254.634 141.5C252.097 158.388 245.814 170.186 232 184C218.186 197.814 206.388 204.097 189.5 206.634C176.061 208.653 173.34 208.47 170.452 205.354" />
    <glyph glyph-name="favorites"
      unicode="&#xEA29;"
      horiz-adv-x="256" d="M125.277 229.595L121.109 221.191L111.982 219.943L102.855 218.696L109.54 211.959L116.226 205.222L114.717 196.361C113.887 191.488 113.339 187.359 113.5 187.187C113.661 187.015 117.44 188.707 121.897 190.948L130 195.022L138.103 190.948C142.56 188.707 146.339 187.015 146.5 187.187C146.661 187.359 146.113 191.488 145.283 196.361L143.774 205.222L150.507 212.007L157.239 218.791L148.124 220.037L139.008 221.283L134.451 229.641C131.946 234.239 129.794 238 129.67 238C129.547 238 127.57 234.218 125.277 229.595M132.978 223.047C135.411 217.853 135.351 217.886 144.858 216.447L149.216 215.788L144.541 211.042L139.867 206.296L140.569 200.093L141.271 193.889L135.635 196.653L130 199.417L124.397 196.669L118.794 193.921L119.507 200.064L120.22 206.207L115.502 210.998L110.784 215.788L115.142 216.447C124.649 217.886 124.589 217.853 127.022 223.047C128.298 225.771 129.638 228 130 228C130.362 228 131.702 225.771 132.978 223.047M35.147 188.815C32.71 178.258 25.727 171.263 15.109 168.74C8.263 167.114 8.263 164.886 15.109 163.26C25.727 160.737 32.71 153.742 35.147 143.185C36.785 136.089 39.215 136.089 40.853 143.185C43.29 153.742 50.273 160.737 60.891 163.26C67.737 164.886 67.737 167.114 60.891 168.74C50.273 171.263 43.29 178.258 40.853 188.815C40.004 192.493 39.175 194 38 194C36.825 194 35.996 192.493 35.147 188.815M219.147 188.815C216.71 178.258 209.727 171.263 199.109 168.74C192.263 167.114 192.263 164.886 199.109 163.26C209.727 160.737 216.71 153.742 219.147 143.185C220.785 136.089 223.215 136.089 224.853 143.185C227.29 153.742 234.273 160.737 244.891 163.26C251.737 164.886 251.737 167.114 244.891 168.74C234.273 171.263 227.29 178.258 224.853 188.815C224.004 192.493 223.175 194 222 194C220.825 194 219.996 192.493 219.147 188.815M39 181.59C39 179.202 46.446 170.611 50.326 168.523C52.347 167.435 54 166.3 54 166C54 165.7 52.347 164.565 50.326 163.477C46.446 161.389 39 152.798 39 150.41C39 149.635 38.55 149 38 149C37.45 149 37 149.635 37 150.41C37 152.798 29.554 161.389 25.674 163.477C23.653 164.565 22 165.7 22 166C22 166.3 23.653 167.435 25.674 168.523C29.554 170.611 37 179.202 37 181.59C37 182.365 37.45 183 38 183C38.55 183 39 182.365 39 181.59M223 181.59C223 179.202 230.446 170.611 234.326 168.523C236.347 167.435 238 166.3 238 166C238 165.7 236.347 164.565 234.326 163.477C230.446 161.389 223 152.798 223 150.41C223 149.635 222.55 149 222 149C221.45 149 221 149.635 221 150.41C221 152.798 213.554 161.389 209.674 163.477C207.653 164.565 206 165.7 206 166C206 166.3 207.653 167.435 209.674 168.523C213.554 170.611 221 179.202 221 181.59C221 182.365 221.45 183 222 183C222.55 183 223 182.365 223 181.59M128 130C128 92.667 128.035 92 130 92C131.965 92 132 92.667 132 130C132 167.333 131.965 168 130 168C128.035 168 128 167.333 128 130M68 138.158C68 136.77 69.52 135.857 74.169 134.449C85.397 131.049 96.35 122.374 102.097 112.331C104.127 108.782 105.559 107.277 106.545 107.656C108.861 108.545 108.29 110.448 103.684 117.186C97.839 125.736 88.397 133.246 78.782 136.993C69.816 140.486 68 140.683 68 138.158M181 136.954C171.514 133.197 161.839 125.452 156.25 117.139C151.725 110.409 151.161 108.536 153.401 107.676C154.316 107.325 156.038 109.142 158.371 112.921C164.79 123.321 174.676 131.071 185.831 134.449C190.48 135.857 192 136.77 192 138.158C192 140.691 189.838 140.454 181 136.954M72.25 88.738C69.02 87.961 68 87.239 68 85.73C68 83.923 68.382 83.823 72.25 84.622C74.588 85.105 80.335 85.5 85.023 85.5C92.614 85.5 94.266 85.146 100.128 82.259C115.108 74.882 123.682 59.16 126.99 33C127.511 28.875 127.952 22.463 127.969 18.75C127.997 12.677 128.201 12 130 12C131.799 12 132.003 12.677 132.031 18.75C132.048 22.463 132.489 28.875 133.01 33C136.318 59.16 144.892 74.882 159.872 82.259C165.734 85.146 167.386 85.5 174.977 85.5C179.665 85.5 185.412 85.105 187.75 84.622C191.601 83.827 192 83.928 192 85.7C192 89.569 175.659 91.35 165.35 88.605C149.05 84.265 137.056 70.376 132.236 50.257C131.281 46.273 130.275 43.014 130 43.014C129.725 43.014 128.719 46.273 127.764 50.257C124.166 65.276 115.073 78.921 105.017 84.394C95.293 89.687 82.983 91.319 72.25 88.738M41.277 77.595L37.109 69.191L27.982 67.943L18.855 66.696L25.54 59.959L32.226 53.222L30.717 44.361C29.887 39.488 29.339 35.359 29.5 35.187C29.661 35.015 33.44 36.707 37.897 38.948L46 43.022L54.103 38.948C58.56 36.707 62.339 35.015 62.5 35.187C62.661 35.359 62.113 39.488 61.283 44.361L59.774 53.222L66.507 60.007L73.239 66.791L64.124 68.037L55.008 69.283L50.451 77.641C47.946 82.239 45.794 86 45.67 86C45.547 86 43.57 82.218 41.277 77.595M209.248 73.535L205.109 65.191L195.982 63.943L186.855 62.696L193.475 56.025L200.095 49.354L198.664 40.427C197.877 35.517 197.359 31.359 197.513 31.187C197.667 31.015 201.47 32.723 205.965 34.982L214.137 39.091L222.626 34.575C229.012 31.177 230.994 30.485 230.622 31.779C230.351 32.726 229.582 37.021 228.915 41.325L227.702 49.149L234.435 55.935L241.169 62.72L231.731 63.969L222.294 65.218L218.402 73.202C216.261 77.593 214.256 81.341 213.948 81.532C213.639 81.723 211.524 78.125 209.248 73.535M48.978 71.047C51.411 65.853 51.351 65.886 60.858 64.447L65.216 63.788L60.541 59.042L55.867 54.296L56.569 48.093L57.271 41.889L51.635 44.653L46 47.417L40.397 44.669L34.794 41.921L35.507 48.064L36.22 54.207L31.502 58.998L26.784 63.788L31.142 64.447C40.649 65.886 40.589 65.853 43.022 71.047C44.298 73.771 45.638 76 46 76C46.362 76 47.702 73.771 48.978 71.047M216.993 67.015C219.469 61.728 219.769 61.54 227.382 60.503L232.265 59.838L227.676 55.169C223.218 50.633 223.114 50.386 224.02 46.5C224.533 44.3 224.963 41.481 224.976 40.236L225 37.971L219.25 40.871L213.5 43.771L208.5 40.894C205.75 39.311 203.252 38.013 202.948 38.008C202.645 38.004 202.844 40.709 203.392 44.019L204.387 50.038L199.561 54.938L194.735 59.838L199.618 60.503C207.375 61.56 207.905 61.879 210.537 67.074C211.91 69.783 213.399 72 213.846 72C214.293 72 215.709 69.757 216.993 67.015" />
    <glyph glyph-name="btn-play"
      unicode="&#xEA2A;"
      horiz-adv-x="256" d="M112.084 243.448C61.354 234.573 20.477 192.975 12.405 142.01C10.186 127.996 10.857 108.091 13.989 95.056C25.422 47.469 61.492 12.636 110 2.336C121.724 -0.153 145.304 -0.151 156.966 2.34C206.576 12.937 243.063 49.424 253.66 99.034C256.151 110.695 256.153 134.275 253.664 146C243.431 194.212 209.992 229.16 162.085 241.71C149.852 244.914 125.336 245.767 112.084 243.448M143.144 233.947C185.193 229.672 219.284 205.086 236.013 166.971C246.562 142.936 247.855 111.907 239.342 87.086C225.898 47.892 192.658 19.503 151.914 12.42C138.529 10.093 118.851 10.896 105.866 14.3C51.88 28.453 16.961 78.1 22.122 133.367C24.414 157.92 34.982 181.294 51.968 199.379C69.683 218.241 96.4 231.496 121.5 233.876C126.45 234.346 131.015 234.791 131.644 234.865C132.273 234.939 137.448 234.526 143.144 233.947M107 123.006C107 94.403 107.229 71 107.51 71C108.059 71 182.926 120.717 184.366 122.038C184.843 122.475 167.63 134.573 146.116 148.923L107 175.013L107 123.006M142.129 138.914C155.383 130.066 165.839 122.472 165.364 122.038C164.563 121.306 121.036 92.285 118.25 90.626C117.26 90.037 117 96.663 117 122.441C117 140.348 117.232 155 117.515 155C117.799 155 128.875 147.761 142.129 138.914" />
    <glyph glyph-name="triangle-sm-down"
      unicode="&#xEA2B;"
      horiz-adv-x="256" d="M191.088 171.696A8 8 0 0 1 184 176H72A8 8 0 0 1 65.456 163.408L121.456 83.408A8 8 0 0 1 134.544 83.408L190.544 163.408A8 8 0 0 1 191.088 171.696z" />
    <glyph glyph-name="trash"
      unicode="&#xEA2C;"
      horiz-adv-x="256" d="M98.646 253.548L96 251.095L96 229.548L96 208L58.455 208L20.909 208L18.455 205.545C15.207 202.298 15.207 197.702 18.455 194.455L20.909 192L136 192L251.091 192L253.545 194.455C256.793 197.702 256.793 202.298 253.545 205.545L251.091 208L213.545 208L176 208L176 229.354C176 250.635 175.992 250.717 173.548 253.354L171.095 256L136.194 256L101.292 256L98.646 253.548M160 224L160 208L136 208L112 208L112 224L112 240L136 240L160 240L160 224M34.646 157.548L32 155.095L32 96.097C32 56.761 32.37 35.332 33.109 31.799C36.308 16.508 48.439 4.383 63.799 1.124C71.124 -0.43 200.78 -0.444 208.201 1.109C223.492 4.308 235.617 16.439 238.876 31.799C239.635 35.38 240 56.172 240 95.903L240 154.708L237.548 157.354C234.399 160.752 230.184 160.826 226.646 157.548L224 155.095L224 96.229C224 29.357 224.111 30.47 216.695 23.191C209.182 15.818 211.227 16 136 16C60.773 16 62.818 15.818 55.305 23.191C47.891 30.468 48 29.378 48 96.035L48 154.708L45.548 157.354C42.399 160.752 38.184 160.826 34.646 157.548M82.455 141.545L80 139.091L80 96L80 52.909L82.455 50.455C84.002 48.907 86.052 48 88 48C89.948 48 91.998 48.907 93.545 50.455L96 52.909L96 96L96 139.091L93.545 141.545C91.998 143.093 89.948 144 88 144C86.052 144 84.002 143.093 82.455 141.545M130.455 141.545L128 139.091L128 96L128 52.909L130.455 50.455C132.002 48.907 134.052 48 136 48C137.948 48 139.998 48.907 141.545 50.455L144 52.909L144 96L144 139.091L141.545 141.545C139.998 143.093 137.948 144 136 144C134.052 144 132.002 143.093 130.455 141.545M178.455 141.545L176 139.091L176 96L176 52.909L178.455 50.455C180.002 48.907 182.052 48 184 48C185.948 48 187.998 48.907 189.545 50.455L192 52.909L192 96L192 139.091L189.545 141.545C187.998 143.093 185.948 144 184 144C182.052 144 180.002 143.093 178.455 141.545" />
    <glyph glyph-name="plus"
      unicode="&#xEA2D;"
      horiz-adv-x="256" d="M98.452 237.354L96 234.708L96 197.354L96 160L58.452 160L20.905 160L18.452 157.354L16 154.708L16 127.806L16 100.905L18.646 98.452L21.292 96L58.646 96L96 96L96 58.452L96 20.905L98.646 18.452L101.292 16L128 16L154.708 16L157.354 18.452L160 20.905L160 58.452L160 96L197.354 96L234.708 96L237.354 98.452L240 100.905L240 127.806L240 154.708L237.548 157.354L235.095 160L197.548 160L160 160L160 197.354L160 234.708L157.548 237.354L155.095 240L128 240L100.905 240L98.452 237.354M144 186.452L144 148.905L146.646 146.452L149.292 144L186.646 144L224 144L224 128L224 112L186.452 112L148.905 112L146.452 109.354L144 106.708L144 69.354L144 32L128 32L112 32L112 69.354L112 106.708L109.548 109.354L107.095 112L69.548 112L32 112L32 128L32 144L69.354 144L106.708 144L109.354 146.452L112 148.905L112 186.452L112 224L128 224L144 224L144 186.452" />
    <glyph glyph-name="enlarge-vertical"
      unicode="&#xEA2E;"
      horiz-adv-x="256" d="M90.266 221.734C59.167 190.635 56 187.164 56 184.186C56 179.969 60.049 176 64.353 176C67.02 176 70.787 179.365 93.707 202.225L120 228.45L120 128L120 27.55L93.707 53.775C70.787 76.635 67.02 80 64.353 80C60.049 80 56 76.031 56 71.814C56 68.836 59.167 65.365 90.266 34.266C122.112 2.42 124.777 0 128 0C131.223 0 133.888 2.42 165.734 34.266C195.959 64.491 200 68.897 200 71.62C200 75.937 196.044 80 191.841 80C188.92 80 185.896 77.316 162.293 53.775L136 27.55L136 128L136 228.45L162.293 202.225C185.896 178.684 188.92 176 191.841 176C196.044 176 200 180.063 200 184.38C200 187.103 195.959 191.509 165.734 221.734C133.888 253.58 131.223 256 128 256C124.777 256 122.112 253.58 90.266 221.734" />
    <glyph glyph-name="enlarge-horizontal"
      unicode="&#xEA2F;"
      horiz-adv-x="256" d="M34.266 165.734C2.42 133.888 0 131.223 0 128C0 124.777 2.42 122.112 34.266 90.266C64.491 60.041 68.897 56 71.62 56C75.937 56 80 59.956 80 64.159C80 67.08 77.316 70.104 53.775 93.707L27.55 120L128 120L228.45 120L202.225 93.707C178.684 70.104 176 67.08 176 64.159C176 59.956 180.063 56 184.38 56C187.103 56 191.509 60.041 221.734 90.266C253.58 122.112 256 124.777 256 128C256 131.223 253.58 133.888 221.734 165.734C190.635 196.833 187.164 200 184.186 200C179.969 200 176 195.951 176 191.647C176 188.98 179.365 185.213 202.225 162.293L228.45 136L128 136L27.55 136L53.775 162.293C76.635 185.213 80 188.98 80 191.647C80 195.951 76.031 200 71.814 200C68.836 200 65.365 196.833 34.266 165.734" />
    <glyph glyph-name="draw-trend"
      unicode="&#xEA30;"
      horiz-adv-x="256" d="M182.292 225.776L152.008 195.551L129.703 217.776C109.311 238.094 107.104 240 103.965 240C100.788 240 97.979 237.447 66.266 205.734C35.167 174.635 32 171.164 32 168.186C32 163.966 36.049 160 40.358 160C43.044 160 47.18 163.748 73.708 190.224L103.992 220.449L126.297 198.224C146.689 177.906 148.896 176 152.035 176C155.212 176 158.021 178.553 189.734 210.266C219.959 240.491 224 244.897 224 247.62C224 251.94 220.045 256 215.836 256C212.896 256 209.604 253.034 182.292 225.776M98.455 173.545L96 171.091L96 112L96 52.909L98.455 50.455C100.002 48.907 102.052 48 104 48C105.948 48 107.998 48.907 109.545 50.455L112 52.909L112 112L112 171.091L109.545 173.545C107.998 175.093 105.948 176 104 176C102.052 176 100.002 175.093 98.455 173.545M194.455 173.545L192 171.091L192 112L192 52.909L194.455 50.455C196.002 48.907 198.052 48 200 48C201.948 48 203.998 48.907 205.545 50.455L208 52.909L208 112L208 171.091L205.545 173.545C203.998 175.093 201.948 176 200 176C198.052 176 196.002 175.093 194.455 173.545M50.455 109.545L48 107.091L48 80L48 52.909L50.455 50.455C52.002 48.907 54.052 48 56 48C57.948 48 59.998 48.907 61.545 50.455L64 52.909L64 80L64 107.091L61.545 109.545C59.998 111.093 57.948 112 56 112C54.052 112 52.002 111.093 50.455 109.545M146.455 109.545L144 107.091L144 80L144 52.909L146.455 50.455C148.002 48.907 150.052 48 152 48C153.948 48 155.998 48.907 157.545 50.455L160 52.909L160 80L160 107.091L157.545 109.545C155.998 111.093 153.948 112 152 112C150.052 112 148.002 111.093 146.455 109.545M2.455 29.545C0.907 27.998 0 25.948 0 24C0 22.052 0.907 20.002 2.455 18.455L4.909 16L128 16L251.091 16L253.545 18.455C256.793 21.702 256.793 26.298 253.545 29.545L251.091 32L128 32L4.909 32L2.455 29.545" />
    <glyph glyph-name="cogwheel"
      unicode="&#xEA31;"
      horiz-adv-x="256" d="M107.356 254.228C104.67 252.062 104.417 251.188 101.485 233.911C100.163 226.121 98.95 219.679 98.791 219.595C98.631 219.511 95.182 218.006 91.128 216.249L83.755 213.056L72.128 221.382C58.43 231.189 57 232 53.393 232C51.212 232 47.941 229.287 37.327 218.673C25.621 206.966 24 204.945 24 202.053C24 199.505 26.095 195.808 33.25 185.727C38.338 178.559 42.37 172.2 42.21 171.597C41.877 170.336 36.754 157.693 36.344 157.119C36.194 156.909 28.748 155.477 19.798 153.935C6.291 151.609 3.226 150.763 1.763 148.956C0.221 147.052 0 144.461 0 128.323C0 117.227 0.423 109.078 1.061 107.886C2.534 105.133 4.967 104.385 21.645 101.559C29.678 100.198 36.332 98.953 36.433 98.792C36.826 98.165 41.937 85.437 42.21 84.403C42.37 83.8 38.337 77.441 33.25 70.273C26.095 60.192 24 56.495 24 53.947C24 51.055 25.621 49.034 37.327 37.327C49.034 25.621 51.055 24 53.947 24C56.495 24 60.192 26.095 70.273 33.25C77.441 38.337 83.8 42.37 84.403 42.21C85.437 41.937 98.165 36.826 98.792 36.433C98.953 36.332 100.198 29.678 101.559 21.645C104.385 4.967 105.133 2.534 107.886 1.061C109.074 0.425 117.132 0 128 0C138.868 0 146.926 0.425 148.114 1.061C150.867 2.534 151.615 4.967 154.441 21.645C155.802 29.678 157.047 36.332 157.208 36.433C157.835 36.826 170.563 41.937 171.597 42.21C172.2 42.37 178.559 38.338 185.727 33.25C195.808 26.095 199.505 24 202.053 24C204.945 24 206.966 25.621 218.673 37.327C230.005 48.659 232 51.116 232 53.734C232 56.753 228.556 62.438 217.587 77.524L213.207 83.548L216.288 91.024C217.983 95.136 219.455 98.631 219.56 98.792C219.665 98.953 226.322 100.198 234.355 101.559C251.033 104.385 253.466 105.133 254.939 107.886C256.281 110.393 256.368 145.445 255.038 147.929C253.639 150.544 249.997 151.702 236 153.984C229.125 155.105 222.6 156.227 221.5 156.477C220.103 156.795 218.632 159.127 216.619 164.216C215.035 168.222 213.749 171.872 213.762 172.326C213.775 172.781 217.884 178.914 222.893 185.956C229.933 195.854 232 199.507 232 202.053C232 204.945 230.379 206.966 218.673 218.673C208.059 229.287 204.788 232 202.607 232C199 232 197.57 231.189 183.872 221.382L172.245 213.056L164.872 216.249C160.818 218.006 157.371 219.509 157.214 219.59C157.057 219.672 156.038 225.085 154.949 231.619C151.897 249.943 151.113 252.696 148.45 254.441C146.51 255.712 142.689 255.996 127.785 255.978C111.976 255.959 109.21 255.722 107.356 254.228M137.47 237.75C137.749 236.512 138.909 229.875 140.048 223C141.186 216.125 142.712 209.587 143.437 208.471C144.17 207.344 147.366 205.623 150.628 204.599C153.858 203.585 159.526 201.236 163.225 199.378C166.924 197.52 171.248 196 172.835 196C174.844 196 179.38 198.582 187.77 204.5C194.397 209.175 200.184 213 200.631 213C201.731 213 213 201.786 213 200.691C213 200.211 209.175 194.397 204.5 187.77C198.582 179.38 196 174.844 196 172.835C196 171.248 197.52 166.924 199.378 163.225C201.236 159.526 203.585 153.858 204.599 150.628C205.623 147.366 207.344 144.17 208.471 143.437C209.587 142.712 216.125 141.186 223 140.048C229.875 138.909 236.529 137.745 237.787 137.46C239.993 136.962 240.064 136.617 239.787 127.769L239.5 118.594L224.247 116.008C215.142 114.464 208.438 112.833 207.615 111.961C206.856 111.157 205.445 108.025 204.478 105C203.511 101.975 201.208 96.474 199.36 92.775C197.512 89.076 196 84.752 196 83.165C196 81.156 198.582 76.62 204.5 68.23C209.175 61.603 213 55.815 213 55.367C213 54.92 210.252 51.781 206.893 48.392L200.786 42.231L188.283 51.115C179.434 57.403 174.928 60 172.865 60C171.262 60 166.924 58.48 163.225 56.622C159.526 54.764 153.858 52.415 150.628 51.401C147.366 50.377 144.17 48.656 143.437 47.529C142.712 46.413 141.186 39.875 140.048 33C138.909 26.125 137.749 19.487 137.47 18.25C136.989 16.122 136.477 16 128 16C119.523 16 119.011 16.122 118.53 18.25C118.251 19.488 117.091 26.125 115.952 33C114.814 39.875 113.288 46.413 112.563 47.529C111.83 48.656 108.634 50.377 105.372 51.401C102.142 52.415 96.474 54.764 92.775 56.622C89.076 58.48 84.738 60 83.135 60C81.072 60 76.566 57.403 67.717 51.115L55.214 42.231L49.107 48.392C45.748 51.781 43 54.92 43 55.367C43 55.815 46.825 61.603 51.5 68.23C57.418 76.62 60 81.156 60 83.165C60 84.752 58.488 89.076 56.64 92.775C54.792 96.474 52.489 101.975 51.522 105C50.555 108.025 49.144 111.157 48.385 111.961C47.562 112.833 40.858 114.464 31.753 116.008L16.5 118.594L16.213 127.769C15.936 136.617 16.007 136.962 18.213 137.46C19.471 137.745 26.125 138.909 33 140.048C39.875 141.186 46.413 142.712 47.529 143.437C48.656 144.17 50.377 147.366 51.401 150.628C52.415 153.858 54.764 159.526 56.622 163.225C58.48 166.924 60 171.248 60 172.835C60 174.844 57.418 179.38 51.5 187.77C46.825 194.397 43 200.211 43 200.691C43 201.786 54.269 213 55.369 213C55.816 213 61.603 209.175 68.23 204.5C76.62 198.582 81.156 196 83.165 196C84.752 196 89.076 197.52 92.775 199.378C96.474 201.236 102.142 203.585 105.372 204.599C108.634 205.623 111.83 207.344 112.563 208.471C113.288 209.587 114.814 216.125 115.952 223C117.091 229.875 118.251 236.512 118.53 237.75C119.011 239.878 119.523 240 128 240C136.477 240 136.989 239.878 137.47 237.75M117.402 174.514C108.36 172.547 101.263 168.497 94.142 161.241C75.367 142.11 75.577 112.944 94.624 94.268C113.778 75.488 142.222 75.488 161.376 94.268C180.423 112.944 180.633 142.11 161.858 161.241C154.593 168.645 147.649 172.542 138.131 174.56C130.084 176.265 125.404 176.255 117.402 174.514M141.25 157.145C147.53 154.073 154.018 147.642 157.047 141.484C160.513 134.442 160.567 121.666 157.161 114.75C154.062 108.458 147.631 101.977 141.484 98.953C134.326 95.43 121.674 95.43 114.516 98.953C108.35 101.987 101.918 108.479 98.867 114.75C96.112 120.412 95.212 131.016 97.007 136.659C100.001 146.07 108.448 155.002 117.665 158.502C123.485 160.713 135.353 160.03 141.25 157.145" />
    <glyph glyph-name="grid-interface"
      unicode="&#xEA32;"
      horiz-adv-x="256" d="M16.1 254.494C9.934 252.572 3.326 245.836 1.467 239.578C-0.671 232.379 -0.671 167.621 1.467 160.422C3.399 153.918 9.908 147.434 16.497 145.451C23.511 143.34 88.489 143.34 95.503 145.451C102.092 147.434 108.601 153.918 110.533 160.422C112.671 167.621 112.671 232.379 110.533 239.578C108.601 246.082 102.092 252.566 95.503 254.549C88.721 256.59 22.676 256.545 16.1 254.494M160.1 254.494C153.934 252.572 147.326 245.836 145.467 239.578C143.329 232.379 143.329 167.621 145.467 160.422C147.399 153.918 153.908 147.434 160.497 145.451C167.511 143.34 232.489 143.34 239.503 145.451C246.092 147.434 252.601 153.918 254.533 160.422C256.671 167.621 256.671 232.379 254.533 239.578C252.601 246.082 246.092 252.566 239.503 254.549C232.721 256.59 166.676 256.545 160.1 254.494M93.354 237.548L96 235.095L96 200.194L96 165.292L93.548 162.646L91.095 160L56 160L20.905 160L18.452 162.646L16 165.292L16 200.194L16 235.095L18.646 237.548L21.292 240L56 240L90.708 240L93.354 237.548M237.354 237.548L240 235.095L240 200.194L240 165.292L237.548 162.646L235.095 160L200 160L164.905 160L162.452 162.646L160 165.292L160 200.194L160 235.095L162.646 237.548L165.292 240L200 240L234.708 240L237.354 237.548M16.1 110.494C9.934 108.572 3.326 101.836 1.467 95.578C-0.671 88.379 -0.671 23.621 1.467 16.422C3.399 9.918 9.908 3.434 16.497 1.451C23.511 -0.66 88.489 -0.66 95.503 1.451C102.092 3.434 108.601 9.918 110.533 16.422C112.671 23.621 112.671 88.379 110.533 95.578C108.601 102.082 102.092 108.566 95.503 110.549C88.721 112.59 22.676 112.545 16.1 110.494M160.1 110.494C153.934 108.572 147.326 101.836 145.467 95.578C143.329 88.379 143.329 23.621 145.467 16.422C147.399 9.918 153.908 3.434 160.497 1.451C167.511 -0.66 232.489 -0.66 239.503 1.451C246.092 3.434 252.601 9.918 254.533 16.422C256.671 23.621 256.671 88.379 254.533 95.578C252.601 102.082 246.092 108.566 239.503 110.549C232.721 112.59 166.676 112.545 160.1 110.494M93.354 93.548L96 91.095L96 56.194L96 21.292L93.548 18.646L91.095 16L56 16L20.905 16L18.452 18.646L16 21.292L16 56.194L16 91.095L18.646 93.548L21.292 96L56 96L90.708 96L93.354 93.548M237.354 93.548L240 91.095L240 56.194L240 21.292L237.548 18.646L235.095 16L200 16L164.905 16L162.452 18.646L160 21.292L160 56.194L160 91.095L162.646 93.548L165.292 96L200 96L234.708 96L237.354 93.548" />
    <glyph glyph-name="edit"
      unicode="&#xEA33;"
      horiz-adv-x="256" d="M106.689 166.181L24.852 84.362L16.381 50.524C10.538 27.185 8.108 15.785 8.548 13.783C8.982 11.807 10.244 10.374 12.497 9.3C15.717 7.765 16.751 7.953 49.655 16.057L83.5 24.393L165.75 106.453C243.202 183.727 248 188.716 248 191.986C248 195.194 246.002 197.456 221.729 221.729C197.473 245.985 195.192 248 191.992 248C188.732 248 183.654 243.13 106.689 166.181M210.502 209.998L228.483 191.996L218.24 181.753L207.997 171.51L189.76 189.747L171.522 207.985L181.492 217.992C186.976 223.497 191.701 228 191.992 228C192.283 228 200.612 219.899 210.502 209.998M178.504 177.996L196.486 159.993L136.08 99.58L75.674 39.168L51.607 33.148C38.37 29.836 27.445 27.222 27.33 27.337C27.215 27.452 29.815 38.336 33.107 51.523L39.094 75.5L99.294 135.75C132.404 168.888 159.725 196 160.007 196C160.29 196 168.613 187.898 178.504 177.996" />
    <glyph glyph-name="mobile"
      unicode="&#xEA34;"
      horiz-adv-x="256" d="M62.5 254.591C47.829 250.956 36.262 238.989 33.124 224.201C31.544 216.754 31.544 39.246 33.124 31.799C36.352 16.59 48.59 4.352 63.799 1.124C71.156 -0.437 184.844 -0.437 192.201 1.124C207.41 4.352 219.648 16.59 222.876 31.799C224.456 39.246 224.456 216.754 222.876 224.201C219.648 239.41 207.41 251.648 192.201 254.876C184.427 256.525 69.286 256.272 62.5 254.591M191.578 238.533C198.082 236.601 204.566 230.092 206.549 223.503C207.763 219.47 208 206.044 208 141.341L208 64L128 64L48 64L48 141.318C48 228.694 47.735 225.379 55.318 232.821C62.629 239.996 61.224 239.858 127.568 239.933C176.723 239.989 187.466 239.754 191.578 238.533M208 42.659C208 30.363 201.518 20.419 191.578 17.467C184.254 15.292 71.746 15.292 64.422 17.467C54.482 20.419 48 30.363 48 42.659L48 48L128 48L208 48L208 42.659" />
    <glyph glyph-name="mobile-notification"
      unicode="&#xEA35;"
      horiz-adv-x="256" d="M112.1 254.494C105.934 252.572 99.326 245.836 97.467 239.578C96.25 235.48 96 224.623 96 175.929C96 119.815 96.084 117.118 97.893 114.884C99.294 113.154 100.79 112.551 103.643 112.568C106.941 112.586 110.905 114.866 130.997 128.295L154.493 144L194.565 144C240.621 144 241.794 144.158 248.809 151.305C255.733 158.36 256 160.171 256 200C256 239.829 255.733 241.64 248.809 248.695C241.517 256.124 242.684 256.009 175.568 255.933C128.469 255.88 115.609 255.588 112.1 254.494M32.1 238.494C25.934 236.572 19.326 229.836 17.467 223.578C16.221 219.381 16 203.789 16 119.977C16 9.267 15.634 15.006 23.191 7.305C30.541 -0.184 28.505 0 104 0C179.495 0 177.459 -0.184 184.809 7.305C192.017 14.65 192 14.495 192 72.013L192 122.708L189.548 125.354C186.256 128.906 181.744 128.906 178.452 125.354L176 122.708L176 72L176 21.292L173.548 18.646L171.095 16L104 16L36.905 16L34.452 18.646L32 21.292L32 120.194L32 219.095L34.646 221.548C37.259 223.969 37.528 224 56 224C74.472 224 74.741 224.031 77.354 226.452C80.752 229.601 80.826 233.816 77.548 237.354L75.095 240L55.798 239.933C42.42 239.887 35.15 239.445 32.1 238.494M237.354 237.548L240 235.095L240 200L240 164.905L237.354 162.452L234.708 160L192.1 160L149.492 160L130.746 147.492L112 134.984L112 184.846L112 234.708L114.452 237.354L116.905 240L175.806 240L234.708 240L237.354 237.548" />
    <glyph glyph-name="email"
      unicode="&#xEA36;"
      horiz-adv-x="256" d="M22.296 238.562C12.697 235.54 3.413 225.69 1.03 216C0.253 212.84 0.009 185.889 0.212 125.5L0.5 39.5L2.953 34.516C5.977 28.369 12.458 21.938 18.75 18.839L23.5 16.5L128 16.5L232.5 16.5L237.484 18.953C243.631 21.977 250.062 28.458 253.161 34.75L255.5 39.5L255.5 128L255.5 216.5L253.161 221.25C250.062 227.542 243.631 234.023 237.484 237.047L232.5 239.5L129.5 239.693C46.421 239.848 25.687 239.629 22.296 238.562M232.615 221.438C239.125 216.578 239.475 215.39 239.773 197.18L240.046 180.5L184.049 150.751L128.052 121.001L72.069 150.751L16.087 180.5L16.043 195.685C15.998 211.46 16.624 214.857 20.317 218.877C25.148 224.138 20.993 223.953 129.177 223.718C229.13 223.502 229.874 223.485 232.615 221.438M72 132.777C112.067 111.336 125.329 104.683 128 104.683C130.671 104.683 143.933 111.336 184 132.777C212.875 148.229 237.298 161.178 238.273 161.552C239.96 162.199 240.033 159.321 239.773 102.188C239.505 43.322 239.46 42.091 237.438 39.384C236.304 37.866 234.134 35.696 232.615 34.562C229.868 32.511 229.311 32.5 128 32.5C26.689 32.5 26.132 32.511 23.385 34.562C21.866 35.696 19.696 37.866 18.562 39.384C16.54 42.091 16.495 43.322 16.227 102.188C15.967 159.321 16.04 162.199 17.727 161.552C18.702 161.178 43.125 148.229 72 132.777" />
    <glyph glyph-name="bug"
      unicode="&#xEA37;"
      horiz-adv-x="256" d="M116.76 254.442C102.715 251.038 91.089 241.736 85.3 229.27C83.15 224.639 83.022 223.727 84.186 221.306C87.369 214.684 94.525 214.54 98.672 221.013C104.901 230.736 107.044 232.896 113.711 236.175C119.566 239.055 121.476 239.498 127.985 239.484C140.119 239.458 150.69 233.493 155.531 223.939C159.354 216.394 163.976 214.193 168.841 217.601C172.976 220.497 173.395 223.672 170.441 229.711C160.996 249.016 138.028 259.597 116.76 254.442M34.455 205.545C32.892 203.983 32 201.951 32 199.955C32 197.296 33.818 194.965 43.978 184.603L55.956 172.387L52.214 167.408C42.216 154.101 34.547 133.46 32.744 115L32.5 112.5L18.158 112C4.59 111.527 3.714 111.373 1.908 109.139C-0.529 106.124 -0.529 101.876 1.908 98.861C3.714 96.627 4.59 96.473 18.158 96L32.5 95.5L32.744 93C34.537 74.649 41.899 54.722 52.075 40.683L55.831 35.5L43.916 23.411C34.003 13.354 32 10.815 32 8.307C32 4.091 35.994 0 40.11 0C42.856 0 44.982 1.647 54.958 11.5C61.362 17.825 66.929 23 67.33 23C67.731 23 70.338 21.198 73.125 18.996C90.433 5.314 115.487 -1.698 137.701 0.922C154.244 2.873 170.919 9.544 182.875 18.996C185.662 21.198 188.269 23 188.67 23C189.071 23 194.638 17.825 201.042 11.5C211.014 1.651 213.145 0 215.888 0C220.174 0 224 3.828 224 8.115C224 10.868 222.314 13.032 212.084 23.411L200.169 35.5L203.925 40.683C214.101 54.722 221.463 74.649 223.256 93L223.5 95.5L237.842 96C251.41 96.473 252.286 96.627 254.092 98.861C256.529 101.876 256.529 106.124 254.092 109.139C252.286 111.373 251.41 111.527 237.842 112L223.5 112.5L223.256 115C221.453 133.46 213.784 154.101 203.786 167.408L200.044 172.387L212.022 184.603C222.182 194.965 224 197.296 224 199.955C224 204.17 220.138 208 215.888 208C213.142 208 210.998 206.333 200.853 196.314L189.021 184.627L184.761 187.832C149.768 214.149 106.232 214.149 71.239 187.832L66.979 184.627L55.147 196.314C45.002 206.333 42.858 208 40.112 208C38.045 208 36.039 207.13 34.455 205.545M139.459 190.942C155.259 188.745 168.041 182.006 181.03 169.024C192.245 157.817 197.956 148.858 202.609 135.176C211.484 109.084 208.51 78.423 194.912 55.824C188.945 45.906 173.521 30.513 165 25.973C149.217 17.563 135.192 14.796 118.652 16.828C101.21 18.972 88.514 25.411 74.997 38.968C63.785 50.215 57.994 59.288 53.391 72.824C44.524 98.892 47.479 129.462 61.061 152.176C66.952 162.03 82.399 177.427 91 182.02C107.712 190.943 121.371 193.458 139.459 190.942" />
    <glyph glyph-name="error"
      unicode="&#xEA38;"
      horiz-adv-x="256" d="M32.1 238.494C25.934 236.572 19.326 229.836 17.467 223.578C15.284 216.226 15.269 23.748 17.451 16.497C19.434 9.908 25.918 3.399 32.422 1.467C39.82 -0.73 232.18 -0.73 239.578 1.467C246.082 3.399 252.566 9.908 254.549 16.497C256.731 23.748 256.716 216.226 254.533 223.578C252.601 230.082 246.092 236.566 239.503 238.549C232.532 240.647 38.841 240.596 32.1 238.494M237.354 221.548L240 219.095L240 120.194L240 21.292L237.548 18.646L235.095 16L136 16L36.905 16L34.452 18.646L32 21.292L32 120.194L32 219.095L34.646 221.548L37.292 224L136 224L234.708 224L237.354 221.548M130.455 189.545L128 187.091L128 148L128 108.909L130.455 106.455C132.002 104.907 134.052 104 136 104C137.948 104 139.998 104.907 141.545 106.455L144 108.909L144 148L144 187.091L141.545 189.545C139.998 191.093 137.948 192 136 192C134.052 192 132.002 191.093 130.455 189.545M129.45 78.593C119.361 74.199 116.978 60.787 124.882 52.882C131.369 46.396 140.631 46.396 147.118 52.882C159.529 65.294 145.566 85.613 129.45 78.593" />
    <glyph glyph-name="coins-24-filled"
      unicode="&#xEA3A;"
      horiz-adv-x="256" d="M181.3333333333333 85.3333333333333C149.856 85.3333333333333 123.7013333333333 92.1493333333334 106.6666666666667 103.5946666666667C106.6666666666667 95.6373333333334 106.6666666666667 90.3893333333334 106.6666666666667 85.3333333333333C106.6666666666667 67.6586666666667 140.096 53.3333333333333 181.3333333333333 53.3333333333333S256 67.6586666666667 256 85.3333333333333C256 90.3893333333334 256 95.6373333333334 256 103.5946666666667C238.9653333333333 92.1493333333334 212.8106666666667 85.3333333333333 181.3333333333333 85.3333333333333zM181.3333333333333 32C149.856 32 123.7013333333333 38.816 106.6666666666667 50.2613333333333C106.6666666666667 42.304 106.6666666666667 37.056 106.6666666666667 32C106.6666666666667 14.3253333333333 140.096 0 181.3333333333333 0S256 14.3253333333333 256 32C256 37.056 256 42.304 256 50.2613333333333C238.9653333333333 38.816 212.8106666666667 32 181.3333333333333 32zM106.6666666666667 138.6666666666667A74.6666666666667 32 0 0 1 256 138.6666666666667A74.6666666666667 32 0 0 1 106.6666666666667 138.6666666666667M0 224A74.6666666666667 32 0 0 1 149.3333333333333 224A74.6666666666667 32 0 0 1 0 224M85.3333333333333 64.288C81.8453333333333 64.1173333333333 78.304 64 74.6666666666667 64C43.1893333333333 64 17.0346666666667 70.816 0 82.2613333333333C0 74.304 0 69.056 0 64C0 46.3253333333333 33.4293333333333 32 74.6666666666667 32C78.2933333333333 32 81.8453333333333 32.1493333333333 85.3333333333333 32.3626666666667V64.288zM85.3333333333333 117.6213333333333C81.8453333333333 117.4506666666667 78.304 117.3333333333334 74.6666666666667 117.3333333333334C43.1893333333333 117.3333333333334 17.0346666666667 124.1493333333334 0 135.5946666666667C0 127.6373333333334 0 122.3893333333334 0 117.3333333333334C0 99.6586666666667 33.4293333333333 85.3333333333333 74.6666666666667 85.3333333333333C78.2933333333333 85.3333333333333 81.8453333333333 85.4826666666667 85.3333333333333 85.696V117.6213333333333zM105.8133333333333 173.1626666666667C96.192 171.5626666666667 85.7813333333333 170.6666666666667 74.6666666666667 170.6666666666667C43.1893333333333 170.6666666666667 17.0346666666667 177.4826666666667 0 188.928C0 180.9706666666667 0 175.7226666666667 0 170.6666666666667C0 152.992 33.4293333333333 138.6666666666667 74.6666666666667 138.6666666666667C78.304 138.6666666666667 81.856 138.816 85.3653333333333 139.0293333333334C85.4933333333333 152.5013333333334 92.9066666666667 164.2026666666667 105.8133333333333 173.1626666666667z" />
    <glyph glyph-name="coins-24"
      unicode="&#xEA3B;"
      horiz-adv-x="256" d="M58.306 243.574C35.878 239.319 18.156 229.157 12.869 217.519C11.158 213.751 11.044 209.151 11.044 144C11.044 78.345 11.147 74.273 12.906 70.399C18.643 57.767 37.268 47.778 62.283 43.916C76.04 41.793 102.174 43.59 115.1 47.55C116.449 47.963 116.794 46.714 117.297 39.584C117.691 34.004 118.593 29.757 119.952 27.095C127.968 11.382 155.941 0.005 186.566 0.001C217.152 -0.002 245.008 11.25 253.646 27.098C255.381 30.281 255.5 33.687 255.5 80L255.5 129.5L252.757 134.166C239.91 156.02 191.497 166.474 153.75 155.544C149.488 154.31 146.016 153.57 146.035 153.9C146.055 154.23 146.714 155.625 147.5 157C148.641 158.996 148.932 164.947 148.943 186.5C148.958 217.398 148.828 218.014 140.542 226.3C134.734 232.108 121.111 238.902 109 242.03C98.121 244.841 69.565 245.71 58.306 243.574M92 233.97C109.95 232.088 124.743 226.55 132.784 218.699C140.076 211.58 140.137 204.772 132.975 197.474C112.136 176.241 47.864 176.241 27.025 197.474C19.863 204.772 19.924 211.58 27.216 218.699C34.959 226.259 50.325 232.181 66.678 233.908C77.811 235.084 81.29 235.092 92 233.97M25.084 184.941C30.242 181.267 42.687 176.04 51.699 173.761C59.292 171.841 63.176 171.533 80 171.52C97.296 171.507 100.517 171.771 108.5 173.86C117.824 176.3 129.889 181.361 134.916 184.941C136.507 186.073 138.077 187 138.404 187C139.196 187 139.171 167.107 138.375 163.123C136.727 154.886 122.191 145.266 105.5 141.368C94.136 138.714 65.864 138.714 54.5 141.368C37.135 145.423 23.09 154.987 21.643 163.74C20.848 168.554 20.81 187 21.596 187C21.923 187 23.493 186.073 25.084 184.941M208.94 147.026C225.302 143.65 237.787 137.301 242.72 129.847C252.658 114.829 228.408 98.346 193.435 96.348C156.239 94.224 122.14 110.439 128.996 126.992C131.622 133.33 141.901 140.563 153.842 144.473C168.59 149.302 192.532 150.411 208.94 147.026M36.275 136.19C57.661 126.787 88.433 125.423 114.03 132.742L120.56 134.61L118.813 129.555C117.565 125.945 117.056 121.294 117.033 113.289L117 102.077L111.75 100.509C94.801 95.445 70.876 94.812 54.024 98.981C36.513 103.313 23.036 112.303 21.672 120.562C21.315 122.728 21.017 129.107 21.011 134.738L21 144.975L26.25 141.632C29.138 139.793 33.649 137.344 36.275 136.19M25.997 99.117C30.579 95.798 42.743 90.777 51.567 88.563C69.939 83.952 100.662 84.944 115.468 90.626C116.804 91.139 117 89.218 117 75.642C117 57.914 117.687 59.269 107.332 56.586C96.662 53.821 82.332 52.837 69.843 54.012C55.567 55.356 48.59 57.128 38.497 61.975C29.118 66.479 23.504 71.524 22.052 76.753C21.011 80.501 20.549 102 21.509 102C21.788 102 23.808 100.703 25.997 99.117M141.171 94.504C169.567 81.051 216.29 82.958 239.74 98.528L245 102.02L245 89.461C245 71.966 243.519 69.51 228.5 62.11C218.562 57.213 211.501 55.365 197.776 54.069C173.385 51.765 149.586 56.9 135.773 67.447C129.052 72.579 128 75.627 128 89.969L128 102.136L130.921 100.056C132.527 98.913 137.14 96.414 141.171 94.504M140.566 51.968C144.137 50.264 151.433 47.695 156.779 46.258C165.623 43.882 168.26 43.64 186 43.573C203.395 43.508 206.525 43.758 215 45.891C224.5 48.281 235.56 52.892 241.83 57.076L245.161 59.298L244.83 45.738C244.502 32.272 244.479 32.152 241.398 28.349C235.695 21.31 222.219 15.085 206.889 12.409C194.461 10.239 169.889 10.977 159.276 13.839C144.496 17.825 132.383 25.466 129.347 32.718C128.469 34.816 128 40.153 128 48.057L128 60.178L131.037 57.622C132.707 56.217 136.995 53.673 140.566 51.968" />
    <glyph glyph-name="preferences-alternate"
      unicode="&#xEA3C;"
      horiz-adv-x="256" d="M50.455 253.545L48 251.091L48 200L48 148.909L50.455 146.455C52.002 144.907 54.052 144 56 144C57.948 144 59.998 144.907 61.545 146.455L64 148.909L64 200L64 251.091L61.545 253.545C59.998 255.093 57.948 256 56 256C54.052 256 52.002 255.093 50.455 253.545M194.455 253.545C192 251.091 192 251.088 192 229.545L192 208L170.646 208C149.365 208 149.283 207.992 146.646 205.548L144 203.095L144 176L144 148.905L146.646 146.452L149.292 144L200.194 144L251.095 144L253.548 146.646L256 149.292L256 176L256 202.708L253.548 205.354L251.095 208L229.548 208L208 208L208 229.545C208 251.088 208 251.091 205.545 253.545C202.298 256.793 197.702 256.793 194.455 253.545M240 176L240 160L200 160L160 160L160 176L160 192L200 192L240 192L240 176M2.646 109.548L0 107.095L0 80L0 52.905L2.646 50.452C5.283 48.008 5.365 48 26.646 48L48 48L48 26.455C48 4.912 48 4.909 50.455 2.455C52.002 0.907 54.052 0 56 0C57.948 0 59.998 0.907 61.545 2.455C64 4.909 64 4.912 64 26.455L64 48L85.548 48L107.095 48L109.548 50.646L112 53.292L112 80L112 106.708L109.548 109.354L107.095 112L56.194 112L5.292 112L2.646 109.548M194.455 109.545L192 107.091L192 56L192 4.909L194.455 2.455C196.002 0.907 198.052 0 200 0C201.948 0 203.998 0.907 205.545 2.455L208 4.909L208 56L208 107.091L205.545 109.545C203.998 111.093 201.948 112 200 112C198.052 112 196.002 111.093 194.455 109.545M96 80L96 64L56 64L16 64L16 80L16 96L56 96L96 96L96 80" />
    <glyph glyph-name="preferences-alternate-1"
      unicode="&#xEA3D;"
      horiz-adv-x="256" d="M50.455 253.545L48 251.091L48 200L48 148.909L50.455 146.455C52.002 144.907 54.052 144 56 144C57.948 144 59.998 144.907 61.545 146.455L64 148.909L64 200L64 251.091L61.545 253.545C59.998 255.093 57.948 256 56 256C54.052 256 52.002 255.093 50.455 253.545M194.455 253.545C192 251.091 192 251.088 192 229.545L192 208L170.646 208C149.365 208 149.283 207.992 146.646 205.548L144 203.095L144 176L144 148.905L146.646 146.452L149.292 144L200.194 144L251.095 144L253.548 146.646L256 149.292L256 176L256 202.708L253.548 205.354L251.095 208L229.548 208L208 208L208 229.545C208 251.088 208 251.091 205.545 253.545C202.298 256.793 197.702 256.793 194.455 253.545M240 176L240 160L200 160L160 160L160 176L160 192L200 192L240 192L240 176M2.646 109.548L0 107.095L0 80L0 52.905L2.646 50.452C5.283 48.008 5.365 48 26.646 48L48 48L48 26.455C48 4.912 48 4.909 50.455 2.455C52.002 0.907 54.052 0 56 0C57.948 0 59.998 0.907 61.545 2.455C64 4.909 64 4.912 64 26.455L64 48L85.548 48L107.095 48L109.548 50.646L112 53.292L112 80L112 106.708L109.548 109.354L107.095 112L56.194 112L5.292 112L2.646 109.548M194.455 109.545L192 107.091L192 56L192 4.909L194.455 2.455C196.002 0.907 198.052 0 200 0C201.948 0 203.998 0.907 205.545 2.455L208 4.909L208 56L208 107.091L205.545 109.545C203.998 111.093 201.948 112 200 112C198.052 112 196.002 111.093 194.455 109.545M96 80L96 64L56 64L16 64L16 80L16 96L56 96L96 96L96 80" />
    <glyph glyph-name="coins-24-1"
      unicode="&#xEA3E;"
      horiz-adv-x="256" d="M58.306 243.574C35.878 239.319 18.156 229.157 12.869 217.519C11.158 213.751 11.044 209.151 11.044 144C11.044 78.345 11.147 74.273 12.906 70.399C18.643 57.767 37.268 47.778 62.283 43.916C76.04 41.793 102.174 43.59 115.1 47.55C116.449 47.963 116.794 46.714 117.297 39.584C117.691 34.004 118.593 29.757 119.952 27.095C127.968 11.382 155.941 0.005 186.566 0.001C217.152 -0.002 245.008 11.25 253.646 27.098C255.381 30.281 255.5 33.687 255.5 80L255.5 129.5L252.757 134.166C239.91 156.02 191.497 166.474 153.75 155.544C149.488 154.31 146.016 153.57 146.035 153.9C146.055 154.23 146.714 155.625 147.5 157C148.641 158.996 148.932 164.947 148.943 186.5C148.958 217.398 148.828 218.014 140.542 226.3C134.734 232.108 121.111 238.902 109 242.03C98.121 244.841 69.565 245.71 58.306 243.574M92 233.97C109.95 232.088 124.743 226.55 132.784 218.699C140.076 211.58 140.137 204.772 132.975 197.474C112.136 176.241 47.864 176.241 27.025 197.474C19.863 204.772 19.924 211.58 27.216 218.699C34.959 226.259 50.325 232.181 66.678 233.908C77.811 235.084 81.29 235.092 92 233.97M25.084 184.941C30.242 181.267 42.687 176.04 51.699 173.761C59.292 171.841 63.176 171.533 80 171.52C97.296 171.507 100.517 171.771 108.5 173.86C117.824 176.3 129.889 181.361 134.916 184.941C136.507 186.073 138.077 187 138.404 187C139.196 187 139.171 167.107 138.375 163.123C136.727 154.886 122.191 145.266 105.5 141.368C94.136 138.714 65.864 138.714 54.5 141.368C37.135 145.423 23.09 154.987 21.643 163.74C20.848 168.554 20.81 187 21.596 187C21.923 187 23.493 186.073 25.084 184.941M208.94 147.026C225.302 143.65 237.787 137.301 242.72 129.847C252.658 114.829 228.408 98.346 193.435 96.348C156.239 94.224 122.14 110.439 128.996 126.992C131.622 133.33 141.901 140.563 153.842 144.473C168.59 149.302 192.532 150.411 208.94 147.026M36.275 136.19C57.661 126.787 88.433 125.423 114.03 132.742L120.56 134.61L118.813 129.555C117.565 125.945 117.056 121.294 117.033 113.289L117 102.077L111.75 100.509C94.801 95.445 70.876 94.812 54.024 98.981C36.513 103.313 23.036 112.303 21.672 120.562C21.315 122.728 21.017 129.107 21.011 134.738L21 144.975L26.25 141.632C29.138 139.793 33.649 137.344 36.275 136.19M25.997 99.117C30.579 95.798 42.743 90.777 51.567 88.563C69.939 83.952 100.662 84.944 115.468 90.626C116.804 91.139 117 89.218 117 75.642C117 57.914 117.687 59.269 107.332 56.586C96.662 53.821 82.332 52.837 69.843 54.012C55.567 55.356 48.59 57.128 38.497 61.975C29.118 66.479 23.504 71.524 22.052 76.753C21.011 80.501 20.549 102 21.509 102C21.788 102 23.808 100.703 25.997 99.117M141.171 94.504C169.567 81.051 216.29 82.958 239.74 98.528L245 102.02L245 89.461C245 71.966 243.519 69.51 228.5 62.11C218.562 57.213 211.501 55.365 197.776 54.069C173.385 51.765 149.586 56.9 135.773 67.447C129.052 72.579 128 75.627 128 89.969L128 102.136L130.921 100.056C132.527 98.913 137.14 96.414 141.171 94.504M140.566 51.968C144.137 50.264 151.433 47.695 156.779 46.258C165.623 43.882 168.26 43.64 186 43.573C203.395 43.508 206.525 43.758 215 45.891C224.5 48.281 235.56 52.892 241.83 57.076L245.161 59.298L244.83 45.738C244.502 32.272 244.479 32.152 241.398 28.349C235.695 21.31 222.219 15.085 206.889 12.409C194.461 10.239 169.889 10.977 159.276 13.839C144.496 17.825 132.383 25.466 129.347 32.718C128.469 34.816 128 40.153 128 48.057L128 60.178L131.037 57.622C132.707 56.217 136.995 53.673 140.566 51.968" />
    <glyph glyph-name="coins-24-filled-1"
      unicode="&#xEA3F;"
      horiz-adv-x="256" d="M181.3333333333333 85.3333333333333C149.856 85.3333333333333 123.7013333333333 92.1493333333334 106.6666666666667 103.5946666666667C106.6666666666667 95.6373333333334 106.6666666666667 90.3893333333334 106.6666666666667 85.3333333333333C106.6666666666667 67.6586666666667 140.096 53.3333333333333 181.3333333333333 53.3333333333333S256 67.6586666666667 256 85.3333333333333C256 90.3893333333334 256 95.6373333333334 256 103.5946666666667C238.9653333333333 92.1493333333334 212.8106666666667 85.3333333333333 181.3333333333333 85.3333333333333zM181.3333333333333 32C149.856 32 123.7013333333333 38.816 106.6666666666667 50.2613333333333C106.6666666666667 42.304 106.6666666666667 37.056 106.6666666666667 32C106.6666666666667 14.3253333333333 140.096 0 181.3333333333333 0S256 14.3253333333333 256 32C256 37.056 256 42.304 256 50.2613333333333C238.9653333333333 38.816 212.8106666666667 32 181.3333333333333 32zM106.6666666666667 138.6666666666667A74.6666666666667 32 0 0 1 256 138.6666666666667A74.6666666666667 32 0 0 1 106.6666666666667 138.6666666666667M0 224A74.6666666666667 32 0 0 1 149.3333333333333 224A74.6666666666667 32 0 0 1 0 224M85.3333333333333 64.288C81.8453333333333 64.1173333333333 78.304 64 74.6666666666667 64C43.1893333333333 64 17.0346666666667 70.816 0 82.2613333333333C0 74.304 0 69.056 0 64C0 46.3253333333333 33.4293333333333 32 74.6666666666667 32C78.2933333333333 32 81.8453333333333 32.1493333333333 85.3333333333333 32.3626666666667V64.288zM85.3333333333333 117.6213333333333C81.8453333333333 117.4506666666667 78.304 117.3333333333334 74.6666666666667 117.3333333333334C43.1893333333333 117.3333333333334 17.0346666666667 124.1493333333334 0 135.5946666666667C0 127.6373333333334 0 122.3893333333334 0 117.3333333333334C0 99.6586666666667 33.4293333333333 85.3333333333333 74.6666666666667 85.3333333333333C78.2933333333333 85.3333333333333 81.8453333333333 85.4826666666667 85.3333333333333 85.696V117.6213333333333zM105.8133333333333 173.1626666666667C96.192 171.5626666666667 85.7813333333333 170.6666666666667 74.6666666666667 170.6666666666667C43.1893333333333 170.6666666666667 17.0346666666667 177.4826666666667 0 188.928C0 180.9706666666667 0 175.7226666666667 0 170.6666666666667C0 152.992 33.4293333333333 138.6666666666667 74.6666666666667 138.6666666666667C78.304 138.6666666666667 81.856 138.816 85.3653333333333 139.0293333333334C85.4933333333333 152.5013333333334 92.9066666666667 164.2026666666667 105.8133333333333 173.1626666666667z" />
    <glyph glyph-name="error-1"
      unicode="&#xEA40;"
      horiz-adv-x="256" d="M32.1 238.494C25.934 236.572 19.326 229.836 17.467 223.578C15.284 216.226 15.269 23.748 17.451 16.497C19.434 9.908 25.918 3.399 32.422 1.467C39.82 -0.73 232.18 -0.73 239.578 1.467C246.082 3.399 252.566 9.908 254.549 16.497C256.731 23.748 256.716 216.226 254.533 223.578C252.601 230.082 246.092 236.566 239.503 238.549C232.532 240.647 38.841 240.596 32.1 238.494M237.354 221.548L240 219.095L240 120.194L240 21.292L237.548 18.646L235.095 16L136 16L36.905 16L34.452 18.646L32 21.292L32 120.194L32 219.095L34.646 221.548L37.292 224L136 224L234.708 224L237.354 221.548M130.455 189.545L128 187.091L128 148L128 108.909L130.455 106.455C132.002 104.907 134.052 104 136 104C137.948 104 139.998 104.907 141.545 106.455L144 108.909L144 148L144 187.091L141.545 189.545C139.998 191.093 137.948 192 136 192C134.052 192 132.002 191.093 130.455 189.545M129.45 78.593C119.361 74.199 116.978 60.787 124.882 52.882C131.369 46.396 140.631 46.396 147.118 52.882C159.529 65.294 145.566 85.613 129.45 78.593" />
    <glyph glyph-name="bug-1"
      unicode="&#xEA41;"
      horiz-adv-x="256" d="M116.76 254.442C102.715 251.038 91.089 241.736 85.3 229.27C83.15 224.639 83.022 223.727 84.186 221.306C87.369 214.684 94.525 214.54 98.672 221.013C104.901 230.736 107.044 232.896 113.711 236.175C119.566 239.055 121.476 239.498 127.985 239.484C140.119 239.458 150.69 233.493 155.531 223.939C159.354 216.394 163.976 214.193 168.841 217.601C172.976 220.497 173.395 223.672 170.441 229.711C160.996 249.016 138.028 259.597 116.76 254.442M34.455 205.545C32.892 203.983 32 201.951 32 199.955C32 197.296 33.818 194.965 43.978 184.603L55.956 172.387L52.214 167.408C42.216 154.101 34.547 133.46 32.744 115L32.5 112.5L18.158 112C4.59 111.527 3.714 111.373 1.908 109.139C-0.529 106.124 -0.529 101.876 1.908 98.861C3.714 96.627 4.59 96.473 18.158 96L32.5 95.5L32.744 93C34.537 74.649 41.899 54.722 52.075 40.683L55.831 35.5L43.916 23.411C34.003 13.354 32 10.815 32 8.307C32 4.091 35.994 0 40.11 0C42.856 0 44.982 1.647 54.958 11.5C61.362 17.825 66.929 23 67.33 23C67.731 23 70.338 21.198 73.125 18.996C90.433 5.314 115.487 -1.698 137.701 0.922C154.244 2.873 170.919 9.544 182.875 18.996C185.662 21.198 188.269 23 188.67 23C189.071 23 194.638 17.825 201.042 11.5C211.014 1.651 213.145 0 215.888 0C220.174 0 224 3.828 224 8.115C224 10.868 222.314 13.032 212.084 23.411L200.169 35.5L203.925 40.683C214.101 54.722 221.463 74.649 223.256 93L223.5 95.5L237.842 96C251.41 96.473 252.286 96.627 254.092 98.861C256.529 101.876 256.529 106.124 254.092 109.139C252.286 111.373 251.41 111.527 237.842 112L223.5 112.5L223.256 115C221.453 133.46 213.784 154.101 203.786 167.408L200.044 172.387L212.022 184.603C222.182 194.965 224 197.296 224 199.955C224 204.17 220.138 208 215.888 208C213.142 208 210.998 206.333 200.853 196.314L189.021 184.627L184.761 187.832C149.768 214.149 106.232 214.149 71.239 187.832L66.979 184.627L55.147 196.314C45.002 206.333 42.858 208 40.112 208C38.045 208 36.039 207.13 34.455 205.545M139.459 190.942C155.259 188.745 168.041 182.006 181.03 169.024C192.245 157.817 197.956 148.858 202.609 135.176C211.484 109.084 208.51 78.423 194.912 55.824C188.945 45.906 173.521 30.513 165 25.973C149.217 17.563 135.192 14.796 118.652 16.828C101.21 18.972 88.514 25.411 74.997 38.968C63.785 50.215 57.994 59.288 53.391 72.824C44.524 98.892 47.479 129.462 61.061 152.176C66.952 162.03 82.399 177.427 91 182.02C107.712 190.943 121.371 193.458 139.459 190.942" />
    <glyph glyph-name="email-1"
      unicode="&#xEA42;"
      horiz-adv-x="256" d="M22.296 238.562C12.697 235.54 3.413 225.69 1.03 216C0.253 212.84 0.009 185.889 0.212 125.5L0.5 39.5L2.953 34.516C5.977 28.369 12.458 21.938 18.75 18.839L23.5 16.5L128 16.5L232.5 16.5L237.484 18.953C243.631 21.977 250.062 28.458 253.161 34.75L255.5 39.5L255.5 128L255.5 216.5L253.161 221.25C250.062 227.542 243.631 234.023 237.484 237.047L232.5 239.5L129.5 239.693C46.421 239.848 25.687 239.629 22.296 238.562M232.615 221.438C239.125 216.578 239.475 215.39 239.773 197.18L240.046 180.5L184.049 150.751L128.052 121.001L72.069 150.751L16.087 180.5L16.043 195.685C15.998 211.46 16.624 214.857 20.317 218.877C25.148 224.138 20.993 223.953 129.177 223.718C229.13 223.502 229.874 223.485 232.615 221.438M72 132.777C112.067 111.336 125.329 104.683 128 104.683C130.671 104.683 143.933 111.336 184 132.777C212.875 148.229 237.298 161.178 238.273 161.552C239.96 162.199 240.033 159.321 239.773 102.188C239.505 43.322 239.46 42.091 237.438 39.384C236.304 37.866 234.134 35.696 232.615 34.562C229.868 32.511 229.311 32.5 128 32.5C26.689 32.5 26.132 32.511 23.385 34.562C21.866 35.696 19.696 37.866 18.562 39.384C16.54 42.091 16.495 43.322 16.227 102.188C15.967 159.321 16.04 162.199 17.727 161.552C18.702 161.178 43.125 148.229 72 132.777" />
    </font>
</defs>
</svg>
